Resume fix

If you have a suggestion for a feature, post it here
Post Reply
elric13
Posts: 9
Joined: Wed Sep 09, 2015 6:26 pm

Resume fix

Post by elric13 » Sun Nov 11, 2018 8:17 am

I would hope a resume fix would be added in a future update. UMS is an excellent server which i do not use frequently exactly because of this issue. I have looked at the forum and it is obvious that many users experience the same and it is yet not resolved. In my case, resume file does not work because video, audio and subs are not coordinated as on the normal file. I have tried a few minor settings' changes that other users have suggested but in vain.
Resume function is crucial especially for long movies. It is not unusual for someone to need to stop watching for various reasons and resume on a later time. Other servers,despite being worse than UMS in general, have this feature.
So i suggest for a resume fix please.

User avatar
SubJunk
Lead Developer
Posts: 2832
Joined: Sun May 27, 2012 4:12 pm

Re: Resume fix

Post by SubJunk » Sun Nov 11, 2018 9:04 am

Hi elric,
I wasn't aware of this issue, can you please post logs after playing a resume file that has this problem? Instructions are at viewtopic.php?f=9&t=556

elric13
Posts: 9
Joined: Wed Sep 09, 2015 6:26 pm

Re: Resume fix

Post by elric13 » Sun Nov 11, 2018 9:53 am

ums_dbg.zip
(92.5 KiB) Downloaded 7 times
Thanks i hope it's useful.

User avatar
SubJunk
Lead Developer
Posts: 2832
Joined: Sun May 27, 2012 4:12 pm

Re: Resume fix

Post by SubJunk » Sun Nov 11, 2018 1:12 pm

Thanks Elric13, yes that is useful.
Here is the command we are sending to FFmpeg to generate the file:

Code: Select all

"C:\Program Files (x86)\Universal Media Server\win32\ffmpeg64.exe" -y -loglevel info -ss 79.0 -i C:\Users\xpx15\Videos\Maniac.2018.S01.WEBRip.x264-ION10\Maniac.2018.S01E04.Furs.by.Sebastian.WEBRip.x264-ION10.mp4 -filter_complex setpts=PTS+79.0/TB,subtitles=C\\:/Users/xpx15/Videos/Maniac.2018.S01.WEBRip.x264-ION10/Maniac.2018.S01E04.Furs.by.Sebastian.WEBRip.x264-ION10.srt,setpts=PTS-STARTPTS -bufsize 30000k -maxrate 29000k -crf 19 -ab 448k -c:a ac3 -c:v libx264 -tune zerolatency -preset ultrafast -level 31 -pix_fmt yuv420p -f mpegts file.ts
Can you please confirm that the same problem exists in the file this produces, if you run it in the Windows command prompt? Also maybe try:

Code: Select all

"C:\Program Files (x86)\Universal Media Server\win32\ffmpeg64.exe" -y -loglevel info -ss 79.0 -i C:\Users\xpx15\Videos\Maniac.2018.S01.WEBRip.x264-ION10\Maniac.2018.S01E04.Furs.by.Sebastian.WEBRip.x264-ION10.mp4 -filter_complex subtitles=C\\:/Users/xpx15/Videos/Maniac.2018.S01.WEBRip.x264-ION10/Maniac.2018.S01E04.Furs.by.Sebastian.WEBRip.x264-ION10.srt -bufsize 30000k -maxrate 29000k -crf 19 -ab 448k -c:a ac3 -c:v libx264 -tune zerolatency -preset ultrafast -level 31 -pix_fmt yuv420p -f mpegts file.ts
to see if that has any effect - it will probably break timing of subtitles but I'm interested to know if it affects the audio sync

elric13
Posts: 9
Joined: Wed Sep 09, 2015 6:26 pm

Re: Resume fix

Post by elric13 » Mon Nov 12, 2018 12:24 am

Hi
I put it in the cmd and it produced a ton of results. My level of knowledge is not adequate to answer your question. Do you need me to copy the entire result here?
I cannot interprete it so I am doing it anyway.



C:\Users\xpx15>"C:\Program Files (x86)\Universal Media Server\win32\ffmpeg64.exe" -y -loglevel info -ss 79.0 -i C:\Users\xpx15\Videos\Maniac.2018.S01.WEBRip.x264-ION10\Maniac.2018.S01E04.Furs.by.Sebastian.WEBRip.x264-ION10.mp4 -filter_complex setpts=PTS+79.0/TB,subtitles=C\\:/Users/xpx15/Videos/Maniac.2018.S01.WEBRip.x264-ION10/Maniac.2018.S01E04.Furs.by.Sebastian.WEBRip.x264-ION10.srt,setpts=PTS-STARTPTS -bufsize 30000k -maxrate 29000k -crf 19 -ab 448k -c:a ac3 -c:v libx264 -tune zerolatency -preset ultrafast -level 31 -pix_fmt yuv420p -f mpegts file.ts
ffmpeg version N-80363-g403a53c Copyright (c) 2000-2016 the FFmpeg developers
built with gcc 5.4.0 (GCC)
configuration: --enable-gpl --enable-version3 --disable-w32threads --enable-nvenc --enable-avisynth --enable-bzlib --enable-fontconfig --enable-frei0r --enable-gnutls --enable-iconv --enable-libass --enable-libbluray --enable-libbs2b --enable-libcaca --enable-libfreetype --enable-libgme --enable-libgsm --enable-libilbc --enable-libmodplug --enable-libmfx --enable-libmp3lame --enable-libopencore-amrnb --enable-libopencore-amrwb --enable-libopenjpeg --enable-libopus --enable-librtmp --enable-libschroedinger --enable-libsnappy --enable-libsoxr --enable-libspeex --enable-libtheora --enable-libtwolame --enable-libvidstab --enable-libvo-amrwbenc --enable-libvorbis --enable-libvpx --enable-libwavpack --enable-libwebp --enable-libx264 --enable-libx265 --enable-libxavs --enable-libxvid --enable-libzimg --enable-lzma --enable-decklink --enable-zlib
libavutil 55. 24.100 / 55. 24.100
libavcodec 57. 46.100 / 57. 46.100
libavformat 57. 38.100 / 57. 38.100
libavdevice 57. 0.101 / 57. 0.101
libavfilter 6. 46.101 / 6. 46.101
libswscale 4. 1.100 / 4. 1.100
libswresample 2. 1.100 / 2. 1.100
libpostproc 54. 0.100 / 54. 0.100
Input #0, mov,mp4,m4a,3gp,3g2,mj2, from 'C:\Users\xpx15\Videos\Maniac.2018.S01.WEBRip.x264-ION10\Maniac.2018.S01E04.Furs.by.Sebastian.WEBRip.x264-ION10.mp4':
Metadata:
major_brand : isom
minor_version : 512
compatible_brands: isomiso2avc1mp41
encoder : Lavf58.0.101
Duration: 00:37:38.76, start: 0.000000, bitrate: 1299 kb/s
Stream #0:0(und): Video: h264 (High) (avc1 / 0x31637661), yuv420p, 720x304 [SAR 152:153 DAR 40:17], 1051 kb/s, 23.98 fps, 23.98 tbr, 24k tbn, 47.95 tbc (default)
Metadata:
handler_name : VideoHandler
Stream #0:1(eng): Audio: aac (LC) (mp4a / 0x6134706D), 48000 Hz, stereo, fltp, 256 kb/s (default)
Metadata:
handler_name : SoundHandler
[Parsed_subtitles_1 @ 000000000216e000] Shaper: FriBidi 0.19.6 (SIMPLE)
[Parsed_subtitles_1 @ 000000000216e000] Using font provider directwrite
[Parsed_subtitles_1 @ 0000000002005aa0] Shaper: FriBidi 0.19.6 (SIMPLE)
[Parsed_subtitles_1 @ 0000000002005aa0] Using font provider directwrite
[libx264 @ 00000000020096a0] using SAR=152/153
[libx264 @ 00000000020096a0] VBV bitrate (29000) > level limit (14000)
[libx264 @ 00000000020096a0] VBV buffer (30000) > level limit (14000)
[libx264 @ 00000000020096a0] using cpu capabilities: MMX2 SSE2Fast SSSE3 SSE4.2 AVX FMA3 AVX2 LZCNT BMI2
[libx264 @ 00000000020096a0] profile Constrained Baseline, level 3.1
[mpegts @ 000000000205bf80] Using AVStream.codec to pass codec parameters to muxers is deprecated, use AVStream.codecpar instead.
Last message repeated 1 times
Output #0, mpegts, to 'file.ts':
Metadata:
major_brand : isom
minor_version : 512
compatible_brands: isomiso2avc1mp41
encoder : Lavf57.38.100
Stream #0:0: Video: h264 (libx264), yuv420p, 720x304 [SAR 152:153 DAR 40:17], q=-1--1, 23.98 fps, 90k tbn, 23.98 tbc (default)
Metadata:
encoder : Lavc57.46.100 libx264
Side data:
cpb: bitrate max/min/avg: 29000000/0/0 buffer size: 30000000 vbv_delay: -1
Stream #0:1(eng): Audio: ac3, 48000 Hz, stereo, fltp, 448 kb/s (default)
Metadata:
handler_name : SoundHandler
encoder : Lavc57.46.100 ac3
Stream mapping:
Stream #0:0 (h264) -> setpts (graph 0)
setpts (graph 0) -> Stream #0:0 (libx264)
Stream #0:1 -> #0:1 (aac (native) -> ac3 (native))
Press [q] to stop, [?] for help
[Parsed_subtitles_1 @ 0000000002005aa0] fontselect: (Arial, 400, 0) -> ArialMT, 0, ArialMT
frame= 232 fps=0.0 q=18.0 size= 2773kB time=00:00:10.01 bitrate=2269.4kbits/frame= 563 fps=562 q=18.0 size= 6658kB time=00:00:23.83 bitrate=2288.3kbits/frame= 854 fps=568 q=18.0 size= 10263kB time=00:00:35.96 bitrate=2337.7kbits/frame= 1199 fps=599 q=16.0 size= 14732kB time=00:00:50.33 bitrate=2397.9kbits/frame= 1546 fps=618 q=17.0 size= 19982kB time=00:01:04.82 bitrate=2525.1kbits/frame= 1851 fps=616 q=17.0 size= 23642kB time=00:01:17.53 bitrate=2498.1kbits/frame= 2203 fps=629 q=17.0 size= 28227kB time=00:01:32.21 bitrate=2507.5kbits/frame= 2538 fps=634 q=16.0 size= 33335kB time=00:01:46.20 bitrate=2571.3kbits/frame= 2873 fps=638 q=18.0 size= 38353kB time=00:02:00.15 bitrate=2614.8kbits/frame= 3189 fps=637 q=18.0 size= 44057kB time=00:02:13.33 bitrate=2706.8kbits/frame= 3512 fps=638 q=18.0 size= 49518kB time=00:02:26.81 bitrate=2763.1kbits/frame= 3780 fps=629 q=21.0 size= 56040kB time=00:02:37.97 bitrate=2905.9kbits/frame= 4074 fps=626 q=17.0 size= 61060kB time=00:02:50.26 bitrate=2937.8kbits/frame= 4414 fps=630 q=17.0 size= 65923kB time=00:03:04.44 bitrate=2928.0kbits/frame= 4726 fps=629 q=19.0 size= 70548kB time=00:03:17.46 bitrate=2926.7kbits/frame= 5068 fps=633 q=19.0 size= 75558kB time=00:03:31.70 bitrate=2923.7kbits/frame= 5363 fps=630 q=17.0 size= 79022kB time=00:03:44.02 bitrate=2889.6kbits/frame= 5653 fps=627 q=20.0 size= 84002kB time=00:03:56.12 bitrate=2914.4kbits/frame= 6018 fps=633 q=15.0 size= 88680kB time=00:04:11.35 bitrate=2890.2kbits/frame= 6362 fps=635 q=17.0 size= 93293kB time=00:04:25.69 bitrate=2876.5kbits/frame= 6702 fps=637 q=19.0 size= 97589kB time=00:04:39.86 bitrate=2856.5kbits/frame= 7001 fps=635 q=12.0 size= 101136kB time=00:04:52.34 bitrate=2834.0kbits/frame= 7251 fps=630 q=15.0 size= 104062kB time=00:05:02.74 bitrate=2815.8kbits/frame= 7597 fps=632 q=22.0 size= 108305kB time=00:05:17.21 bitrate=2797.0kbits/frame= 7926 fps=633 q=16.0 size= 112521kB time=00:05:30.90 bitrate=2785.6kbits/frame= 8276 fps=636 q=18.0 size= 117122kB time=00:05:45.49 bitrate=2777.0kbits/frame= 8605 fps=637 q=16.0 size= 121470kB time=00:05:59.25 bitrate=2769.8kbits/frame= 8926 fps=637 q=14.0 size= 124992kB time=00:06:12.63 bitrate=2747.8kbits/frame= 9265 fps=638 q=18.0 size= 129658kB time=00:06:26.77 bitrate=2746.2kbits/frame= 9568 fps=637 q=20.0 size= 134211kB time=00:06:39.38 bitrate=2752.9kbits/frame= 9880 fps=637 q=19.0 size= 138886kB time=00:06:52.41 bitrate=2758.8kbits/frame=10210 fps=637 q=18.0 size= 142666kB time=00:07:06.17 bitrate=2742.4kbits/frame=10527 fps=637 q=16.0 size= 146309kB time=00:07:19.38 bitrate=2727.8kbits/frame=10839 fps=637 q=14.0 size= 150278kB time=00:07:32.41 bitrate=2721.1kbits/frame=11134 fps=635 q=16.0 size= 153931kB time=00:07:44.69 bitrate=2713.6kbits/frame=11480 fps=637 q=19.0 size= 157721kB time=00:07:59.13 bitrate=2696.7kbits/frame=11769 fps=635 q=18.0 size= 161476kB time=00:08:11.19 bitrate=2693.0kbits/frame=12046 fps=633 q=20.0 size= 164958kB time=00:08:22.74 bitrate=2687.9kbits/frame=12366 fps=633 q=15.0 size= 168735kB time=00:08:36.12 bitrate=2678.2kbits/frame=12719 fps=635 q=18.0 size= 173220kB time=00:08:50.84 bitrate=2673.1kbits/frame=13019 fps=634 q=17.0 size= 177003kB time=00:09:03.32 bitrate=2668.8kbits/frame=13376 fps=636 q=19.0 size= 181253kB time=00:09:18.23 bitrate=2659.9kbits/frame=13690 fps=636 q=15.0 size= 184905kB time=00:09:31.32 bitrate=2651.3kbits/frame=14033 fps=637 q=14.0 size= 188889kB time=00:09:45.62 bitrate=2642.3kbits/frame=14355 fps=637 q=15.0 size= 193305kB time=00:09:59.06 bitrate=2643.4kbits/frame=14659 fps=636 q=17.0 size= 197736kB time=00:10:11.73 bitrate=2647.9kbits/frame=14944 fps=635 q=19.0 size= 202103kB time=00:10:23.64 bitrate=2654.8kbits/[Parsed_subtitles_1 @ 0000000002005aa0] fontselect: (Arial, 400, 100) -> Arial-ItalicMT, 0, Arial-ItalicMT
frame=15220 fps=633 q=18.0 size= 206430kB time=00:10:35.13 bitrate=2662.6kbits/frame=15532 fps=633 q=17.0 size= 210435kB time=00:10:48.15 bitrate=2659.7kbits/frame=15874 fps=634 q=17.0 size= 213740kB time=00:11:02.42 bitrate=2643.2kbits/frame=16216 fps=635 q=15.0 size= 217311kB time=00:11:16.69 bitrate=2630.7kbits/frame=16478 fps=633 q=19.0 size= 221418kB time=00:11:27.61 bitrate=2637.9kbits/frame=16746 fps=631 q=19.0 size= 226295kB time=00:11:38.77 bitrate=2652.9kbits/frame=17030 fps=630 q=18.0 size= 230800kB time=00:11:50.61 bitrate=2660.7kbits/frame=17212 fps=625 q=18.0 size= 233716kB time=00:11:58.23 bitrate=2665.7kbits/frame=17398 fps=620 q=17.0 size= 236508kB time=00:12:05.97 bitrate=2668.8kbits/frame=17605 fps=617 q=17.0 size= 239690kB time=00:12:14.61 bitrate=2672.9kbits/frame=17855 fps=615 q=18.0 size= 243416kB time=00:12:25.05 bitrate=2676.4kbits/frame=18089 fps=612 q=16.0 size= 246142kB time=00:12:34.77 bitrate=2671.5kbits/frame=18358 fps=611 q=23.0 size= 249150kB time=00:12:46.01 bitrate=2664.5kbits/frame=18689 fps=612 q=19.0 size= 253366kB time=00:12:59.83 bitrate=2661.6kbits/frame=19025 fps=613 q=14.0 size= 256511kB time=00:13:13.81 bitrate=2647.1kbits/frame=19336 fps=613 q=17.0 size= 259538kB time=00:13:26.81 bitrate=2635.2kbits/frame=19666 fps=613 q=16.0 size= 262507kB time=00:13:40.57 bitrate=2620.7kbits/frame=19921 fps=612 q=19.0 size= 265726kB time=00:13:51.19 bitrate=2618.9kbits/frame=20229 fps=612 q=17.0 size= 268985kB time=00:14:04.05 bitrate=2610.6kbits/frame=20552 fps=612 q=17.0 size= 271938kB time=00:14:17.53 bitrate=2597.8kbits/frame=20874 fps=613 q=14.0 size= 274586kB time=00:14:30.93 bitrate=2582.7kbits/frame=21146 fps=612 q=19.0 size= 278182kB time=00:14:42.29 bitrate=2582.9kbits/frame=21478 fps=613 q=16.0 size= 281272kB time=00:14:56.12 bitrate=2571.3kbits/frame=21769 fps=612 q=18.0 size= 284544kB time=00:15:08.28 bitrate=2566.4kbits/frame=22082 fps=612 q=19.0 size= 288121kB time=00:15:21.33 bitrate=2561.8kbits/frame=22375 fps=612 q=17.0 size= 291826kB time=00:15:33.56 bitrate=2560.8kbits/frame=22649 fps=611 q=16.0 size= 294557kB time=00:15:44.98 bitrate=2553.5kbits/frame=22926 fps=610 q=16.0 size= 297893kB time=00:15:56.53 bitrate=2551.2kbits/frame=23255 fps=611 q=18.0 size= 301976kB time=00:16:10.26 bitrate=2549.6kbits/frame=23577 fps=611 q=16.0 size= 305449kB time=00:16:23.70 bitrate=2543.7kbits/frame=23909 fps=612 q=18.0 size= 309361kB time=00:16:37.53 bitrate=2540.6kbits/frame=24245 fps=613 q=16.0 size= 313375kB time=00:16:51.54 bitrate=2537.9kbits/frame=24565 fps=613 q=14.0 size= 316921kB time=00:17:04.92 bitrate=2533.1kbits/frame=24876 fps=613 q=17.0 size= 320959kB time=00:17:17.88 bitrate=2533.3kbits/frame=25190 fps=613 q=18.0 size= 325210kB time=00:17:30.93 bitrate=2535.0kbits/frame=25514 fps=614 q=21.0 size= 330699kB time=00:17:44.47 bitrate=2545.0kbits/frame=25827 fps=614 q=18.0 size= 335270kB time=00:17:57.53 bitrate=2548.9kbits/frame=25827 fps=573 q=18.0 size= 335270kB time=00:17:57.56 bitrate=2548.8kbits/frame=26103 fps=573 q=21.0 size= 339381kB time=00:18:09.05 bitrate=2552.9kbits/frame=26423 fps=574 q=17.0 size= 344319kB time=00:18:22.42 bitrate=2558.6kbits/frame=26743 fps=575 q=17.0 size= 348837kB time=00:18:35.73 bitrate=2561.2kbits/frame=27061 fps=575 q=18.0 size= 352904kB time=00:18:48.98 bitrate=2560.7kbits/frame=27405 fps=576 q=14.0 size= 357298kB time=00:19:03.32 bitrate=2560.1kbits/frame=27723 fps=577 q=19.0 size= 361476kB time=00:19:16.63 bitrate=2560.2kbits/frame=28032 fps=577 q=19.0 size= 365527kB time=00:19:29.49 bitrate=2560.4kbits/frame=28341 fps=578 q=17.0 size= 369505kB time=00:19:42.39 bitrate=2560.0kbits/frame=28669 fps=579 q=18.0 size= 374133kB time=00:19:56.05 bitrate=2562.5kbits/frame=28992 fps=579 q=18.0 size= 377611kB time=00:20:09.56 bitrate=2557.4kbits/frame=29267 fps=579 q=18.0 size= 381193kB time=00:20:21.01 bitrate=2557.5kbits/frame=29588 fps=580 q=17.0 size= 384784kB time=00:20:34.39 bitrate=2553.6kbits/frame=29945 fps=581 q=16.0 size= 388883kB time=00:20:49.30 bitrate=2550.0kbits/frame=30279 fps=582 q=19.0 size= 392627kB time=00:21:03.22 bitrate=2546.2kbits/frame=30630 fps=583 q=18.0 size= 397565kB time=00:21:17.85 bitrate=2548.7kbits/frame=30959 fps=584 q=17.0 size= 401701kB time=00:21:31.57 bitrate=2547.8kbits/frame=31295 fps=584 q=13.0 size= 404574kB time=00:21:45.59 bitrate=2538.5kbits/frame=31665 fps=586 q=14.0 size= 409023kB time=00:22:01.01 bitrate=2536.5kbits/frame=32037 fps=587 q=15.0 size= 412099kB time=00:22:16.53 bitrate=2525.9kbits/frame=32409 fps=589 q=15.0 size= 415422kB time=00:22:32.05 bitrate=2517.0kbits/frame=32707 fps=589 q=18.0 size= 419794kB time=00:22:44.50 bitrate=2520.3kbits/frame=33024 fps=589 q=15.0 size= 423005kB time=00:22:57.72 bitrate=2515.2kbits/frame=33397 fps=590 q=17.0 size= 426861kB time=00:23:13.27 bitrate=2509.8kbits/frame=33771 fps=592 q=15.0 size= 430711kB time=00:23:28.85 bitrate=2504.4kbits/frame=34099 fps=592 q=19.0 size= 435258kB time=00:23:42.55 bitrate=2506.5kbits/frame=34407 fps=593 q=16.0 size= 439649kB time=00:23:55.38 bitrate=2509.2kbits/frame=34741 fps=593 q=16.0 size= 443356kB time=00:24:09.30 bitrate=2506.0kbits/frame=35044 fps=593 q=16.0 size= 446336kB time=00:24:21.97 bitrate=2501.0kbits/frame=35341 fps=593 q=14.0 size= 448998kB time=00:24:34.33 bitrate=2494.8kbits/frame=35628 fps=593 q=14.0 size= 451685kB time=00:24:46.33 bitrate=2489.5kbits/frame=35963 fps=594 q=16.0 size= 455197kB time=00:25:00.31 bitrate=2485.5kbits/frame=36244 fps=594 q=17.0 size= 459250kB time=00:25:12.02 bitrate=2488.2kbits/frame=36572 fps=594 q=14.0 size= 463028kB time=00:25:25.69 bitrate=2486.2kbits/frame=36957 fps=595 q=15.0 size= 466883kB time=00:25:41.75 bitrate=2480.8kbits/frame=37294 fps=596 q=16.0 size= 470604kB time=00:25:55.80 bitrate=2477.9kbits/frame=37603 fps=596 q=14.0 size= 473732kB time=00:26:08.69 bitrate=2473.9kbits/frame=37942 fps=597 q=19.0 size= 477968kB time=00:26:22.84 bitrate=2473.7kbits/frame=38225 fps=597 q=18.0 size= 482265kB time=00:26:34.65 bitrate=2477.5kbits/frame=38534 fps=597 q=19.0 size= 486707kB time=00:26:47.51 bitrate=2480.3kbits/frame=38903 fps=598 q=18.0 size= 492431kB time=00:27:02.90 bitrate=2485.7kbits/frame=39248 fps=599 q=18.0 size= 496486kB time=00:27:17.33 bitrate=2484.0kbits/frame=39562 fps=599 q=19.0 size= 499917kB time=00:27:30.39 bitrate=2481.4kbits/frame=39914 fps=600 q=20.0 size= 503849kB time=00:27:45.08 bitrate=2478.9kbits/frame=40247 fps=600 q=19.0 size= 507736kB time=00:27:58.97 bitrate=2477.3kbits/frame=40588 fps=601 q=18.0 size= 511685kB time=00:28:13.21 bitrate=2475.6kbits/frame=40907 fps=601 q=19.0 size= 515226kB time=00:28:26.49 bitrate=2473.3kbits/frame=41188 fps=601 q=18.0 size= 518361kB time=00:28:38.23 bitrate=2471.4kbits/frame=41561 fps=602 q=19.0 size= 522081kB time=00:28:53.78 bitrate=2466.8kbits/frame=41907 fps=602 q=19.0 size= 526046kB time=00:29:08.21 bitrate=2465.0kbits/frame=42264 fps=603 q=19.0 size= 529791kB time=00:29:23.09 bitrate=2461.6kbits/frame=42600 fps=604 q=18.0 size= 533395kB time=00:29:37.08 bitrate=2458.8kbits/frame=42909 fps=604 q=18.0 size= 536710kB time=00:29:50.01 bitrate=2456.3kbits/frame=43257 fps=604 q=17.0 size= 541137kB time=00:30:04.50 bitrate=2456.6kbits/frame=43615 fps=605 q=17.0 size= 544915kB time=00:30:19.45 bitrate=2453.5kbits/frame=43988 fps=606 q=19.0 size= 548707kB time=00:30:35.00 bitrate=2449.6kbits/frame=44344 fps=607 q=19.0 size= 554529kB time=00:30:49.85 bitrate=2455.7kbits/frame=44698 fps=607 q=16.0 size= 558670kB time=00:31:04.60 bitrate=2454.5kbits/frame=44960 fps=607 q=17.0 size= 562357kB time=00:31:15.54 bitrate=2456.3kbits/frame=45291 fps=607 q=13.0 size= 566847kB time=00:31:29.37 bitrate=2457.8kbits/frame=45668 fps=608 q=15.0 size= 571557kB time=00:31:45.05 bitrate=2457.8kbits/frame=46013 fps=609 q=16.0 size= 576173kB time=00:31:59.45 bitrate=2459.0kbits/frame=46361 fps=609 q=15.0 size= 579841kB time=00:32:13.97 bitrate=2456.1kbits/frame=46654 fps=609 q=18.0 size= 583090kB time=00:32:26.20 bitrate=2454.4kbits/frame=46970 fps=609 q=18.0 size= 588112kB time=00:32:39.35 bitrate=2458.9kbits/frame=47307 fps=610 q=14.0 size= 593203kB time=00:32:53.43 bitrate=2462.5kbits/frame=47731 fps=611 q=13.0 size= 596741kB time=00:33:11.13 bitrate=2455.1kbits/frame=48274 fps=614 q=10.0 size= 598925kB time=00:33:33.75 bitrate=2436.4kbits/frame=48816 fps=617 q=9.0 size= 600850kB time=00:33:56.37 bitrate=2417.1kbits/sframe=49320 fps=620 q=10.0 size= 603395kB time=00:34:17.40 bitrate=2402.6kbits/frame=49774 fps=622 q=19.0 size= 607749kB time=00:34:36.34 bitrate=2397.8kbits/frame=50146 fps=622 q=19.0 size= 611697kB time=00:34:51.83 bitrate=2395.5kbits/frame=50613 fps=624 q=15.0 size= 616253kB time=00:35:11.32 bitrate=2391.1kbits/frame=51078 fps=626 q=15.0 size= 620626kB time=00:35:30.71 bitrate=2386.1kbits/frame=51470 fps=627 q=15.0 size= 624092kB time=00:35:48.05 bitrate=2380.1kbits/frame=51566 fps=626 q=8.0 Lsize= 626349kB time=00:36:19.73 bitrate=2354.0kbits/s speed=26.5x
video:452808kB audio:119205kB subtitle:0kB other streams:0kB global headers:0kB muxing overhead: 9.499198%
[libx264 @ 00000000020096a0] frame I:207 Avg QP:13.98 size: 42946
[libx264 @ 00000000020096a0] frame P:51359 Avg QP:16.89 size: 8855
[libx264 @ 00000000020096a0] mb I I16..4: 100.0% 0.0% 0.0%
[libx264 @ 00000000020096a0] mb P I16..4: 5.1% 0.0% 0.0% P16..4: 65.5% 0.0% 0.0% 0.0% 0.0% skip:29.4%
[libx264 @ 00000000020096a0] coded y,uvDC,uvAC intra: 60.5% 64.9% 27.2% inter: 39.1% 30.3% 5.4%
[libx264 @ 00000000020096a0] i16 v,h,dc,p: 33% 31% 26% 10%
[libx264 @ 00000000020096a0] i8c dc,h,v,p: 43% 26% 22% 9%
[libx264 @ 00000000020096a0] kb/s:1724.72

User avatar
SubJunk
Lead Developer
Posts: 2832
Joined: Sun May 27, 2012 4:12 pm

Re: Resume fix

Post by SubJunk » Mon Nov 12, 2018 7:58 am

Thanks for posting this elric, when you ran that command it will have produced a video called file.ts in the folder you ran the command from, so please try playing that file on your computer to see if it also has the audio sync problem :)

elric13
Posts: 9
Joined: Wed Sep 09, 2015 6:26 pm

Re: Resume fix

Post by elric13 » Mon Nov 12, 2018 8:38 am

Well for the first command video, audio, subs sync without problem. Just the video quality of the file.ts is not so great, i do not know if this matters somehow.

For the second command you said i try video and audio sync ok, but subs do not.

User avatar
SubJunk
Lead Developer
Posts: 2832
Joined: Sun May 27, 2012 4:12 pm

Re: Resume fix

Post by SubJunk » Mon Nov 12, 2018 8:13 pm

That's interesting that the first one syncs. That means it must somehow be a problem with UMS... I made an issue for it https://github.com/UniversalMediaServer ... ssues/1666

elric13
Posts: 9
Joined: Wed Sep 09, 2015 6:26 pm

Re: Resume fix

Post by elric13 » Mon Nov 12, 2018 8:33 pm

Ok thanks.

Glad to be of further help if needed.

elric13
Posts: 9
Joined: Wed Sep 09, 2015 6:26 pm

Re: Resume fix

Post by elric13 » Mon Dec 10, 2018 9:51 am

Resume works now smoothly after updating to latest version. :)
Solved.
Thanks

Post Reply