Version 5.1.0 is released

Announcements about Universal Media Server
hasimirrossi
Posts: 7
Joined: Sun Feb 15, 2015 11:24 am

Re: Version 5.1.0 is released

Post by hasimirrossi » Sun Mar 29, 2015 8:18 am

Rocket wrote:Unable to view video files using a x360, brings up options for image browsing instead.
Still? Bah. Looks like I'm sticking with 4.4.0 then.

Lassik
Posts: 4
Joined: Thu Apr 18, 2013 1:35 pm

Re: Version 5.1.0 is released

Post by Lassik » Sun Mar 29, 2015 2:44 pm

***UPDATE***
DISREGARD. I started looking through the support forums which is what I should have done in the first place (my bad) and I found that my concern was already addressed.
Thread: viewtopic.php?f=9&t=3113&start=10
Link to version that works fine: http://www.spirton.com/uploads/UMS/UMS-30f0f20.exe
***UPDATE***


I was on version 4.4.0 and finally decided to update to this version. Now i'm having issues with "File type not supported" on my TV.

I have a Samsung UN55D7000LF.

UMS is currently running on a Windows 7 machine that is running Java 8. I have tried both the Java 7 and Java 8 versions of UMS with the same results. I went back and installed versions 5.0.0 and 5.0.1 and the same thing happened. So it appears this issue began after the update from 4.4.0 to 5.0.0.

I went back and installed 4.4.0 and it's working fine again. All files play with no issues. When installing, I choose clean install every time and I don't touch any of the settings. Everything is default.

If this helps, here are all the details about the file i'm trying to play. It's an MP4 file format.

Video

Code: Select all

ID                                       : 1
Format                                   : AVC
Format/Info                              : Advanced Video Codec
Format profile                           : [email protected]
Format settings, CABAC                   : Yes
Format settings, ReFrames                : 4 frames
Codec ID                                 : avc1
Codec ID/Info                            : Advanced Video Coding
Duration                                 : 1h 44mn
Bit rate                                 : 4 778 Kbps
Width                                    : 1 280 pixels
Height                                   : 536 pixels
Display aspect ratio                     : 2.40:1
Frame rate mode                          : Constant
Frame rate                               : 25.000 fps
Color space                              : YUV
Chroma subsampling                       : 4:2:0
Bit depth                                : 8 bits
Scan type                                : Progressive
Bits/(Pixel*Frame)                       : 0.279
Stream size                              : 3.47 GiB (95%)
Writing library                          : x264 core 144 r2525M 40bb568
Encoding settings                        : cabac=1 / ref=4 / deblock=1:0:0 /
  analyse=0x3:0x113 / me=umh / subme=7 / psy=1 / psy_rd=1.00:0.15 / mixed_ref=1 /
  me_range=16 / chroma_me=1 / trellis=1 / 8x8dct=1 / cqm=0 / deadzone=21,11 /
  fast_pskip=1 / chroma_qp_offset=-3 / threads=40 / lookahead_threads=8 /
  sliced_threads=0 / nr=0 / decimate=1 / interlaced=0 / bluray_compat=0 /
  constrained_intra=0 / bframes=3 / b_pyramid=2 / b_adapt=2 / b_bias=0 / direct=3
  / weightb=1 / open_gop=0 / weightp=2 / keyint=250 / keyint_min=25 / scenecut=40
  / intra_refresh=0 / rc_lookahead=50 / rc=crf / mbtree=1 / crf=16.0 / qcomp=0.60
  / qpmin=0 / qpmax=69 / qpstep=4 / ip_ratio=1.40 / aq=1:1.00

Audio

Code: Select all

ID                                       : 2
Format                                   : AAC
Format/Info                              : Advanced Audio Codec
Format profile                           : LC
Codec ID                                 : 40
Duration                                 : 1h 44mn
Bit rate mode                            : Constant
Bit rate                                 : 224 Kbps
Channel(s)                               : 2 channels
Channel positions                        : Front: L R
Sampling rate                            : 48.0 KHz
Compression mode                         : Lossy
Stream size                              : 167 MiB (4%)
Language                                 : unk

User avatar
SubJunk
Lead Developer
Posts: 2942
Joined: Sun May 27, 2012 4:12 pm

Re: Version 5.1.0 is released

Post by SubJunk » Mon Mar 30, 2015 8:05 am

hasimirrossi wrote:
Rocket wrote:Unable to view video files using a x360, brings up options for image browsing instead.
Still? Bah. Looks like I'm sticking with 4.4.0 then.
When I got this problem I just ignore it and enter the first folder and it works like normal. It seems like the Xbox has a bug that interferes with our new 5.0 network stuff and we are working a workaround.

User avatar
SubJunk
Lead Developer
Posts: 2942
Joined: Sun May 27, 2012 4:12 pm

Re: Version 5.1.0 is released

Post by SubJunk » Mon Mar 30, 2015 11:08 am

Yeah it seems to be a thing with Microsoft products

Forceflow
Posts: 10
Joined: Tue Mar 31, 2015 6:09 am

Re: Version 5.1.0 is released

Post by Forceflow » Tue Mar 31, 2015 6:10 am

Revan wrote:Since the new Version, Video transcoding (mkv) issnt working anymore. It seems the cause is ffmpeg64.exe.

The only thing by getting it working again is renaming ffmpeg.exe to ffmpeg64.exe! How can i use 64bit transcoding? And ofc i've a x64 OS. The log issnt showing anything useful.
I'm having this same problem - searched the log as well. I'm on Win 8.1 x64.
Thanks for the solution though, something wrong with that ffmpeg64 executable.

Update: executable just seems to fail silently, while the renamed ffmpeg (the 32-bit one) keeps running.

User avatar
SubJunk
Lead Developer
Posts: 2942
Joined: Sun May 27, 2012 4:12 pm

Re: Version 5.1.0 is released

Post by SubJunk » Tue Mar 31, 2015 8:41 am

Forceflow wrote:
Revan wrote:Since the new Version, Video transcoding (mkv) issnt working anymore. It seems the cause is ffmpeg64.exe.

The only thing by getting it working again is renaming ffmpeg.exe to ffmpeg64.exe! How can i use 64bit transcoding? And ofc i've a x64 OS. The log issnt showing anything useful.
I'm having this same problem - searched the log as well. I'm on Win 8.1 x64.
Thanks for the solution though, something wrong with that ffmpeg64 executable.

Update: executable just seems to fail silently, while the renamed ffmpeg (the 32-bit one) keeps running.
If you could make a support thread for this with logs then we can work on fixing it :)

Forceflow
Posts: 10
Joined: Tue Mar 31, 2015 6:09 am

Re: Version 5.1.0 is released

Post by Forceflow » Tue Mar 31, 2015 12:11 pm

SubJunk wrote:
Forceflow wrote:
Revan wrote:Since the new Version, Video transcoding (mkv) issnt working anymore. It seems the cause is ffmpeg64.exe.

The only thing by getting it working again is renaming ffmpeg.exe to ffmpeg64.exe! How can i use 64bit transcoding? And ofc i've a x64 OS. The log issnt showing anything useful.
I'm having this same problem - searched the log as well. I'm on Win 8.1 x64.
Thanks for the solution though, something wrong with that ffmpeg64 executable.

Update: executable just seems to fail silently, while the renamed ffmpeg (the 32-bit one) keeps running.
If you could make a support thread for this with logs then we can work on fixing it :)
Okay, did that here: viewtopic.php?f=9&t=3216

Sorry for polluting this thread and thanks for all the hard work.

jps92
Posts: 108
Joined: Wed Nov 27, 2013 9:45 pm

Re: Version 5.1.0 is released

Post by jps92 » Tue Mar 31, 2015 10:01 pm

With a Bravia EX the subtitling doesn't work anymore with one mkv :

Format : UTF-8
Identifiant du codec : S_TEXT/UTF8
Identifiant du codec/Info : UTF-8 Plain Text
Titre : French Forced
Langue : frf
Default : Oui
Forced : Oui

Berzerk
Posts: 12
Joined: Mon Nov 26, 2012 5:28 pm

Re: Version 5.1.0 is released

Post by Berzerk » Tue Mar 31, 2015 11:46 pm

Same problem here, subtitles are not rendered. (PS3 - Toshiba TV & Samsung F9000)
Only the first 3 are rendered, then, no more subtitles at all.

MediaInfo:

Code: Select all

General
Unique ID                   : 253086762168607131041560317583109534206 (0xBE66BCC4DC4AE0A191E0D7BDC08A31FE)
Complete name               : X:\Al mijn Louis de Funes DVDs (2012-03-20) ENCODED\La Zizanie (1978)\La Zizanie.mkv
Format                      : Matroska
Format version              : Version 4 / Version 2
File size                   : 758 MiB
Duration                    : 1h 32mn
Overall bit rate            : 1 147 Kbps
Encoded date                : UTC 2013-03-09 04:00:20
Writing application         : mkvmerge v6.1.0 ('Old Devil') built on Mar  2 2013 14:32:37
Writing library             : libebml v1.3.0 + libmatroska v1.4.0

Video
ID                          : 1
Format                      : AVC
Format/Info                 : Advanced Video Codec
Format profile              : [email protected]
Format settings, CABAC      : Yes
Format settings, ReFrames   : 16 frames
Codec ID                    : V_MPEG4/ISO/AVC
Duration                    : 1h 32mn
Bit rate                    : 932 Kbps
Width                       : 720 pixels
Height                      : 432 pixels
Display aspect ratio        : 2.40:1
Original display aspect rat : 2.40:1
Frame rate mode             : Constant
Frame rate                  : 25.000 fps
Color space                 : YUV
Chroma subsampling          : 4:2:0
Bit depth                   : 8 bits
Scan type                   : Progressive
Bits/(Pixel*Frame)          : 0.120
Stream size                 : 616 MiB (81%)
Writing library             : x264 core 130 r2273 b3065e6
Encoding settings           : cabac=1 / ref=16 / deblock=1:0:0 / analyse=0x3:0x133 / me=umh / subme=10 / psy=1 / psy_rd=1.00:0.00 / mixed_ref=1 / me_range=24 / chroma_me=1 / trellis=2 / 8x8dct=1 / cqm=0 / deadzone=21,11 / fast_pskip=1 / chroma_qp_offset=-2 / threads=6 / lookahead_threads=1 / sliced_threads=0 / nr=0 / decimate=1 / interlaced=0 / bluray_compat=0 / constrained_intra=0 / bframes=8 / b_pyramid=2 / b_adapt=2 / b_bias=0 / direct=3 / weightb=1 / open_gop=0 / weightp=2 / keyint=250 / keyint_min=25 / scenecut=40 / intra_refresh=0 / rc_lookahead=60 / rc=crf / mbtree=1 / crf=21.0 / qcomp=0.60 / qpmin=0 / qpmax=69 / qpstep=4 / vbv_maxrate=31250 / vbv_bufsize=31250 / crf_max=0.0 / nal_hrd=none / ip_ratio=1.40 / aq=1:1.00
Default                     : Yes
Forced                      : No

Audio
ID                          : 2
Format                      : AC-3
Format/Info                 : Audio Coding 3
Mode extension              : CM (complete main)
Format settings, Endianness : Big
Codec ID                    : A_AC3
Duration                    : 1h 32mn
Bit rate mode               : Constant
Bit rate                    : 192 Kbps
Channel(s)                  : 2 channels
Channel positions           : Front: L R
Sampling rate               : 48.0 KHz
Bit depth                   : 16 bits
Compression mode            : Lossy
Stream size                 : 127 MiB (17%)
Language                    : French
Default                     : Yes
Forced                      : No

Text
ID                          : 3
Format                      : UTF-8
Codec ID                    : S_TEXT/UTF8
Codec ID/Info               : UTF-8 Plain Text
Language                    : Dutch
Default                     : Yes
Forced                      : No
UPDATE : unchecking "Defer to MEncoder when transcoding subtitles" in FFmpeg settings FIXED this from happening.

Please, anyone able to reproduce ? Any developer willing to look into this ?

jps92
Posts: 108
Joined: Wed Nov 27, 2013 9:45 pm

Re: Version 5.1.0 is released

Post by jps92 » Wed Apr 01, 2015 8:50 pm

I've already unchecked "Defer to MEncoder when transcoding subtitles".

Post Reply