Transcode 4k UHD

Discuss media renderers like Xbox 360, TVs, smartphones, etc.
Post Reply
Jabez76
Posts: 1
Joined: Sun May 26, 2019 9:54 pm

Transcode 4k UHD

Post by Jabez76 » Sun May 26, 2019 10:08 pm

HI there I am new to this forum.

I have maybe a simple question.

If I have a movie file....see below for details.

And it is on my pc , and I stream it to my Sony Bravia A9F | MASTER Series | OLED | 4K Ultra HD | High Dynamic Range (HDR)

How do I know if it will produce the same video/image quality, and NOT transcode it to something else?

And this question goes for all other 4k UHD movies that I will "purchase via download"

Audio will be player via 7.1.2ch Dolby Atmos/DTS:X TM Soundbar with Wi-Fi/Bluetooth technology |HT-ST5000

Will this audio also be lost or upscaled?






Video
ID : 1
Format : HEVC
Format/Info : High Efficiency Video Coding
Commercial name : HDR10
Format profile : Main [email protected]@High
Codec ID : V_MPEGH/ISO/HEVC
Duration : 24 min 22 s
Bit rate : 23.3 Mb/s
Width : 2 880 pixels
Height : 2 160 pixels
Display aspect ratio : 4:3
Frame rate mode : Constant
Frame rate : 23.976 (24000/1001) FPS
Color space : YUV
Chroma subsampling : 4:2:0 (Type 2)
Bit depth : 10 bits
Bits/(Pixel*Frame) : 0.156
Stream size : 3.97 GiB (89%)

Audio
ID : 2
Format : DTS
Format/Info : Digital Theater Systems
Format profile : MA / Core
Codec ID : A_DTS
Duration : 24 min 22 s
Bit rate mode : Variable / Constant
Bit rate : 2 796 kb/s / 1 509 kb/s
Channel(s) : 6 channels
Channel positions : Front: L C R, Side: L R, LFE
Sampling rate : 48.0 kHz
Frame rate : 93.750 FPS (512 SPF)
Bit depth : 24 bits
Compression mode : Lossless / Lossy
Stream size : 487 MiB (11%)
Language : English
Default : Yes
Forced : No

Post Reply