Double Subtitles?

For help and support with Universal Media Server in general
Forum rules
Please make sure you follow the Problem Reporting Guidelines before posting if you want a reply
slyr114
Posts: 9
Joined: Fri Dec 06, 2013 9:57 am

Re: Double Subtitles?

Post by slyr114 » Tue Dec 10, 2013 7:53 am

SubJunk wrote:OK I can't reproduce the bug on my end so I need your debug info. Please follow the instructions in the link in my signature :)
Ok so now it seems to work fine and only shows one set of subtitles even though i have not changed any settings for a while now... anyway I uploaded the zip file anyway so maybe you could see why it did it in the past...

Also here is a bit in the debug log that looks a bit weird when i played the file before it fixed itself

Code: Select all

DEBUG 2013-12-05 16:52:41.372 [New I/O worker #10] Starting "C:\Program Files (x86)\Universal Media Server\win32\ffmpeg.exe" -ss 2 -i "E:\Unsorted\Patlabor\Mobile Police Patlabor\Patlabor.TV.02v2.(Dual.Audio).XVID.[AM].ogm" -an -an -s 320x180 -vframes 1 -f image2 pipe:
DEBUG 2013-12-05 16:52:41.373 [New I/O worker #10] Attaching thread: ffmpeg.exe-9
DEBUG 2013-12-05 16:52:41.397 [Thread-62] ffmpeg version N-58485-ga12b4bd Copyright (c) 2000-2013 the FFmpeg developers
DEBUG 2013-12-05 16:52:41.397 [Thread-62]   built on Nov 26 2013 22:01:46 with gcc 4.8.2 (GCC)
DEBUG 2013-12-05 16:52:41.397 [Thread-62]   configuration: --enable-gpl --enable-version3 --disable-w32threads --enable-avisynth --enable-bzlib --enable-fontconfig --enable-frei0r --enable-gnutls --enable-iconv --enable-libass --enable-libbluray --enable-libcaca --enable-libfreetype --enable-libgsm --enable-libilbc --enable-libmodplug --enable-libmp3lame --enable-libopencore-amrnb --enable-libopencore-amrwb --enable-libopenjpeg --enable-libopus --enable-librtmp --enable-libschroedinger --enable-libsoxr --enable-libspeex --enable-libtheora --enable-libtwolame --enable-libvidstab --enable-libvo-aacenc --enable-libvo-amrwbenc --enable-libvorbis --enable-libvpx --enable-libwavpack --enable-libx264 --enable-libxavs --enable-libxvid --enable-zlib
DEBUG 2013-12-05 16:52:41.397 [Thread-62]   libavutil      52. 55.100 / 52. 55.100
DEBUG 2013-12-05 16:52:41.397 [Thread-62]   libavcodec     55. 44.100 / 55. 44.100
DEBUG 2013-12-05 16:52:41.397 [Thread-62]   libavformat    55. 21.102 / 55. 21.102
DEBUG 2013-12-05 16:52:41.397 [Thread-62]   libavdevice    55.  5.101 / 55.  5.101
DEBUG 2013-12-05 16:52:41.397 [Thread-62]   libavfilter     3. 91.100 /  3. 91.100
DEBUG 2013-12-05 16:52:41.397 [Thread-62]   libswscale      2.  5.101 /  2.  5.101
DEBUG 2013-12-05 16:52:41.398 [Thread-62]   libswresample   0. 17.104 /  0. 17.104
DEBUG 2013-12-05 16:52:41.398 [Thread-62]   libpostproc    52.  3.100 / 52.  3.100
DEBUG 2013-12-05 16:52:41.429 [Thread-62] Input #0, ogg, from 'E:\Unsorted\Patlabor\Mobile Police Patlabor\Patlabor.TV.02v2.(Dual.Audio).XVID.[AM].ogm':
DEBUG 2013-12-05 16:52:41.430 [Thread-62]   Duration: 00:24:37.94, start: 0.000000, bitrate: 997 kb/s
DEBUG 2013-12-05 16:52:41.430 [Thread-62]     Chapter #0.0: start 0.000000, end 641.333000
DEBUG 2013-12-05 16:52:41.430 [Thread-62]     Metadata:
DEBUG 2013-12-05 16:52:41.430 [Thread-62]       title           : Chapter 3
DEBUG 2013-12-05 16:52:41.430 [Thread-62]     Chapter #0.1: start 641.333000, end 1477.945000
DEBUG 2013-12-05 16:52:41.430 [Thread-62]     Metadata:
DEBUG 2013-12-05 16:52:41.430 [Thread-62]       title           : Chapter 4
DEBUG 2013-12-05 16:52:41.431 [Thread-62]     Stream #0:0: Video: mpeg4 (XVID / 0x44495658), yuv420p, 640x480, 29.97 fps, 29.97 tbr, 29.97 tbn, 29.97 tbc
DEBUG 2013-12-05 16:52:41.431 [Thread-62]     Stream #0:1(English[eng]): Audio: vorbis, 48000 Hz, stereo, fltp, 112 kb/s
DEBUG 2013-12-05 16:52:41.431 [Thread-62]     Stream #0:2(Japanese[jpn]): Audio: vorbis, 48000 Hz, stereo, fltp, 112 kb/s
DEBUG 2013-12-05 16:52:41.431 [Thread-62]     Stream #0:3(English[eng]): Subtitle: text
DEBUG 2013-12-05 16:52:41.447 [Thread-62] [swscaler @ 024022e0] deprecated pixel format used, make sure you did set range correctly
DEBUG 2013-12-05 16:52:41.449 [Thread-62] Output #0, image2, to 'pipe:':
DEBUG 2013-12-05 16:52:41.449 [Thread-62]   Metadata:
DEBUG 2013-12-05 16:52:41.449 [Thread-62]     encoder         : Lavf55.21.102
DEBUG 2013-12-05 16:52:41.449 [Thread-62]     Chapter #0.0: start 0.000000, end 639.333000
DEBUG 2013-12-05 16:52:41.449 [Thread-62]     Metadata:
DEBUG 2013-12-05 16:52:41.449 [Thread-62]       title           : Chapter 3
DEBUG 2013-12-05 16:52:41.449 [Thread-62]     Chapter #0.1: start 639.333000, end 1475.945000
DEBUG 2013-12-05 16:52:41.449 [Thread-62]     Metadata:
DEBUG 2013-12-05 16:52:41.449 [Thread-62]       title           : Chapter 4
DEBUG 2013-12-05 16:52:41.449 [Thread-62]     Stream #0:0: Video: mjpeg, yuvj420p, 320x180, q=2-31, 200 kb/s, 90k tbn, 29.97 tbc
DEBUG 2013-12-05 16:52:41.449 [Thread-62] Stream mapping:
DEBUG 2013-12-05 16:52:41.449 [Thread-62]   Stream #0:0 -> #0:0 (mpeg4 -> mjpeg)
DEBUG 2013-12-05 16:52:41.449 [Thread-62] Press [q] to stop, [?] for help
DEBUG 2013-12-05 16:52:41.450 [Thread-62] [mpeg4 @ 02398940] Video uses a non-standard and wasteful way to store B-frames ('packed B-frames'). Consider using a tool like VirtualDub or avidemux to fix it.
DEBUG 2013-12-05 16:52:41.503 [Thread-62] frame=    1 fps=0.0 q=0.0 Lsize=N/A time=00:00:00.03 bitrate=N/A    
DEBUG 2013-12-05 16:52:41.503 [Thread-62] 
DEBUG 2013-12-05 16:52:41.503 [Thread-62] video:13kB audio:0kB subtitle:0 global headers:0kB muxing overhead -100.170768%
DEBUG 2013-12-05 16:52:41.505 [Buffered IO End Checker] Stopping process: ffmpeg.exe-2
DEBUG 2013-12-05 16:52:41.538 [Thread-60] 100.0% complete
DEBUG 2013-12-05 16:52:41.771 [Thread-60] 100.0% complete
DEBUG 2013-12-05 16:52:41.963 [Buffered IO End Checker] Stopping process: ffmpeg.exe-3
DEBUG 2013-12-05 16:52:42.007 [Thread-60] 100.0% complete
DEBUG 2013-12-05 16:52:42.251 [Thread-60] 100.0% complete
DEBUG 2013-12-05 16:52:42.492 [Thread-60] 100.0% complete
DEBUG 2013-12-05 16:52:42.725 [Thread-60] 100.0% complete
DEBUG 2013-12-05 16:52:42.952 [Thread-60] 100.0% complete
DEBUG 2013-12-05 16:52:43.182 [Buffered IO End Checker] Stopping process: ffmpeg.exe-4
DEBUG 2013-12-05 16:52:43.201 [Thread-60] 100.0% complete
DEBUG 2013-12-05 16:52:43.445 [Thread-60] 100.0% complete
DEBUG 2013-12-05 16:52:43.587 [Buffered IO End Checker] Stopping process: ffmpeg.exe-8
DEBUG 2013-12-05 16:52:43.695 [Thread-60] 100.0% complete
DEBUG 2013-12-05 16:52:43.933 [Thread-60] 100.0% complete
DEBUG 2013-12-05 16:52:44.013 [Buffered IO End Checker] Stopping process: ffmpeg.exe-9
DEBUG 2013-12-05 16:52:44.179 [Thread-60] 100.0% complete
DEBUG 2013-12-05 16:52:44.405 [Thread-60] 100.0% complete
DEBUG 2013-12-05 16:52:44.645 [Thread-60] 100.0% complete
DEBUG 2013-12-05 16:52:44.901 [Thread-60] 100.0% complete
DEBUG 2013-12-05 16:52:45.156 [Thread-60] 100.0% complete
DEBUG 2013-12-05 16:52:45.406 [Thread-60] 100.0% complete
DEBUG 2013-12-05 16:52:45.672 [Thread-60] 100.0% complete
DEBUG 2013-12-05 16:52:45.949 [Thread-60] 100.0% complete
DEBUG 2013-12-05 16:52:46.176 [Thread-60] 100.0% complete
DEBUG 2013-12-05 16:52:46.465 [Thread-60] 100.0% complete
DEBUG 2013-12-05 16:52:46.713 [Thread-60] 100.0% complete
DEBUG 2013-12-05 16:52:46.966 [Thread-60] 100.0% complete
DEBUG 2013-12-05 16:52:47.223 [Thread-60] 100.0% complete
DEBUG 2013-12-05 16:52:47.324 [Thread-47] Too many subtitle lines
DEBUG 2013-12-05 16:52:47.337 [Thread-47] Too many subtitle lines
DEBUG 2013-12-05 16:52:47.354 [Thread-47] Too many subtitle lines
DEBUG 2013-12-05 16:52:47.371 [Thread-47] Too many subtitle lines
DEBUG 2013-12-05 16:52:47.390 [Thread-47] Too many subtitle lines
DEBUG 2013-12-05 16:52:47.408 [Thread-47] Too many subtitle lines
DEBUG 2013-12-05 16:52:47.429 [Thread-47] Too many subtitle lines
DEBUG 2013-12-05 16:52:47.439 [Thread-47] Too many subtitle lines
DEBUG 2013-12-05 16:52:47.449 [Thread-47] Too many subtitle lines
DEBUG 2013-12-05 16:52:47.450 [Thread-60] 100.0% complete
DEBUG 2013-12-05 16:52:47.460 [Thread-47] Too many subtitle lines
DEBUG 2013-12-05 16:52:47.471 [Thread-47] Too many subtitle lines
DEBUG 2013-12-05 16:52:47.481 [Thread-47] Too many subtitle lines
DEBUG 2013-12-05 16:52:47.498 [Thread-47] Too many subtitle lines
DEBUG 2013-12-05 16:52:47.511 [Thread-47] Too many subtitle lines
DEBUG 2013-12-05 16:52:47.531 [Thread-47] Too many subtitle lines
DEBUG 2013-12-05 16:52:47.552 [Thread-47] Too many subtitle lines
DEBUG 2013-12-05 16:52:47.564 [Thread-47] Too many subtitle lines
DEBUG 2013-12-05 16:52:47.576 [Thread-47] Too many subtitle lines
DEBUG 2013-12-05 16:52:47.588 [Thread-47] Too many subtitle lines
DEBUG 2013-12-05 16:52:47.600 [Thread-47] Too many subtitle lines
DEBUG 2013-12-05 16:52:47.612 [Thread-47] Too many subtitle lines
DEBUG 2013-12-05 16:52:47.624 [Thread-47] Too many subtitle lines
DEBUG 2013-12-05 16:52:47.636 [Thread-47] Too many subtitle lines
DEBUG 2013-12-05 16:52:47.647 [Thread-47] Too many subtitle lines
DEBUG 2013-12-05 16:52:47.658 [Thread-47] Too many subtitle lines
DEBUG 2013-12-05 16:52:47.670 [Thread-47] Too many subtitle lines
DEBUG 2013-12-05 16:52:47.680 [Thread-47] Too many subtitle lines
DEBUG 2013-12-05 16:52:47.692 [Thread-47] Too many subtitle lines
DEBUG 2013-12-05 16:52:47.703 [Thread-47] Too many subtitle lines
DEBUG 2013-12-05 16:52:47.704 [Thread-60] 100.0% complete
DEBUG 2013-12-05 16:52:47.715 [Thread-47] Too many subtitle lines
DEBUG 2013-12-05 16:52:47.726 [Thread-47] Too many subtitle lines
DEBUG 2013-12-05 16:52:47.737 [Thread-47] Too many subtitle lines
DEBUG 2013-12-05 16:52:47.760 [Thread-47] Too many subtitle lines
DEBUG 2013-12-05 16:52:47.771 [Thread-47] Too many subtitle lines
DEBUG 2013-12-05 16:52:47.783 [Thread-47] Too many subtitle lines
DEBUG 2013-12-05 16:52:47.794 [Thread-47] Too many subtitle lines
DEBUG 2013-12-05 16:52:47.805 [Thread-47] Too many subtitle lines
DEBUG 2013-12-05 16:52:47.816 [Thread-47] Too many subtitle lines
DEBUG 2013-12-05 16:52:47.825 [Thread-47] Too many subtitle lines
DEBUG 2013-12-05 16:52:47.837 [Thread-47] Too many subtitle lines
DEBUG 2013-12-05 16:52:47.850 [Thread-47] Too many subtitle lines
DEBUG 2013-12-05 16:52:47.850 [Thread-47] Too many subtitle lines
DEBUG 2013-12-05 16:52:47.865 [Thread-47] Too many subtitle lines
DEBUG 2013-12-05 16:52:47.865 [Thread-47] Too many subtitle lines
DEBUG 2013-12-05 16:52:47.877 [Thread-47] Too many subtitle lines
DEBUG 2013-12-05 16:52:47.877 [Thread-47] Too many subtitle lines
DEBUG 2013-12-05 16:52:47.903 [Thread-47] Too many subtitle lines
DEBUG 2013-12-05 16:52:47.903 [Thread-47] Too many subtitle lines
DEBUG 2013-12-05 16:52:47.914 [Thread-47] Too many subtitle lines
DEBUG 2013-12-05 16:52:47.914 [Thread-47] Too many subtitle lines
DEBUG 2013-12-05 16:52:47.929 [Thread-47] Too many subtitle lines
DEBUG 2013-12-05 16:52:47.929 [Thread-47] Too many subtitle lines
DEBUG 2013-12-05 16:52:47.942 [Thread-47] Too many subtitle lines
DEBUG 2013-12-05 16:52:47.942 [Thread-47] Too many subtitle lines
DEBUG 2013-12-05 16:52:47.950 [Thread-60] 100.0% complete
DEBUG 2013-12-05 16:52:47.956 [Thread-47] Too many subtitle lines
DEBUG 2013-12-05 16:52:47.956 [Thread-47] Too many subtitle lines
DEBUG 2013-12-05 16:52:47.966 [Thread-47] Too many subtitle lines
DEBUG 2013-12-05 16:52:47.967 [Thread-47] Too many subtitle lines
DEBUG 2013-12-05 16:52:47.994 [Thread-47] Too many subtitle lines
DEBUG 2013-12-05 16:52:47.994 [Thread-47] Too many subtitle lines
DEBUG 2013-12-05 16:52:48.004 [Thread-47] Too many subtitle lines
DEBUG 2013-12-05 16:52:48.005 [Thread-47] Too many subtitle lines
DEBUG 2013-12-05 16:52:48.016 [Thread-47] Too many subtitle lines
DEBUG 2013-12-05 16:52:48.016 [Thread-47] Too many subtitle lines
DEBUG 2013-12-05 16:52:48.027 [Thread-47] Too many subtitle lines
DEBUG 2013-12-05 16:52:48.027 [Thread-47] Too many subtitle lines
DEBUG 2013-12-05 16:52:48.038 [Thread-47] Too many subtitle lines
DEBUG 2013-12-05 16:52:48.038 [Thread-47] Too many subtitle lines
DEBUG 2013-12-05 16:52:48.049 [Thread-47] Too many subtitle lines
DEBUG 2013-12-05 16:52:48.049 [Thread-47] Too many subtitle lines
DEBUG 2013-12-05 16:52:48.077 [Thread-47] Too many subtitle lines
DEBUG 2013-12-05 16:52:48.077 [Thread-47] Too many subtitle lines
DEBUG 2013-12-05 16:52:48.087 [Thread-47] Too many subtitle lines
DEBUG 2013-12-05 16:52:48.087 [Thread-47] Too many subtitle lines
DEBUG 2013-12-05 16:52:48.098 [Thread-47] Too many subtitle lines
DEBUG 2013-12-05 16:52:48.098 [Thread-47] Too many subtitle lines
DEBUG 2013-12-05 16:52:48.109 [Thread-47] Too many subtitle lines
DEBUG 2013-12-05 16:52:48.110 [Thread-47] Too many subtitle lines
DEBUG 2013-12-05 16:52:48.121 [Thread-47] Too many subtitle lines
DEBUG 2013-12-05 16:52:48.121 [Thread-47] Too many subtitle lines
DEBUG 2013-12-05 16:52:48.132 [Thread-47] Too many subtitle lines
DEBUG 2013-12-05 16:52:48.132 [Thread-47] Too many subtitle lines
DEBUG 2013-12-05 16:52:48.159 [Thread-47] Too many subtitle lines
DEBUG 2013-12-05 16:52:48.160 [Thread-47] Too many subtitle lines
DEBUG 2013-12-05 16:52:48.170 [Thread-47] Too many subtitle lines
DEBUG 2013-12-05 16:52:48.170 [Thread-47] Too many subtitle lines
DEBUG 2013-12-05 16:52:48.177 [Thread-60] 100.0% complete
DEBUG 2013-12-05 16:52:48.181 [Thread-47] Too many subtitle lines
DEBUG 2013-12-05 16:52:48.181 [Thread-47] Too many subtitle lines
DEBUG 2013-12-05 16:52:48.192 [Thread-47] Too many subtitle lines
DEBUG 2013-12-05 16:52:48.192 [Thread-47] Too many subtitle lines
DEBUG 2013-12-05 16:52:48.203 [Thread-47] Too many subtitle lines
DEBUG 2013-12-05 16:52:48.204 [Thread-47] Too many subtitle lines
DEBUG 2013-12-05 16:52:48.214 [Thread-47] Too many subtitle lines
DEBUG 2013-12-05 16:52:48.214 [Thread-47] Too many subtitle lines
DEBUG 2013-12-05 16:52:48.242 [Thread-47] Too many subtitle lines
DEBUG 2013-12-05 16:52:48.242 [Thread-47] Too many subtitle lines
DEBUG 2013-12-05 16:52:48.253 [Thread-47] Too many subtitle lines
DEBUG 2013-12-05 16:52:48.253 [Thread-47] Too many subtitle lines
DEBUG 2013-12-05 16:52:48.263 [Thread-47] Too many subtitle lines
DEBUG 2013-12-05 16:52:48.263 [Thread-47] Too many subtitle lines
DEBUG 2013-12-05 16:52:48.274 [Thread-47] Too many subtitle lines
DEBUG 2013-12-05 16:52:48.275 [Thread-47] Too many subtitle lines
DEBUG 2013-12-05 16:52:48.286 [Thread-47] Too many subtitle lines
DEBUG 2013-12-05 16:52:48.286 [Thread-47] Too many subtitle lines
DEBUG 2013-12-05 16:52:48.297 [Thread-47] Too many subtitle lines
DEBUG 2013-12-05 16:52:48.297 [Thread-47] Too many subtitle lines
DEBUG 2013-12-05 16:52:48.326 [Thread-47] Too many subtitle lines
DEBUG 2013-12-05 16:52:48.326 [Thread-47] Too many subtitle lines
DEBUG 2013-12-05 16:52:48.336 [Thread-47] Too many subtitle lines
DEBUG 2013-12-05 16:52:48.336 [Thread-47] Too many subtitle lines
DEBUG 2013-12-05 16:52:48.348 [Thread-47] Too many subtitle lines
DEBUG 2013-12-05 16:52:48.348 [Thread-47] Too many subtitle lines
DEBUG 2013-12-05 16:52:48.359 [Thread-47] Too many subtitle lines
DEBUG 2013-12-05 16:52:48.360 [Thread-47] Too many subtitle lines
DEBUG 2013-12-05 16:52:48.370 [Thread-47] Too many subtitle lines
DEBUG 2013-12-05 16:52:48.370 [Thread-47] Too many subtitle lines
DEBUG 2013-12-05 16:52:48.380 [Thread-47] Too many subtitle lines
DEBUG 2013-12-05 16:52:48.380 [Thread-47] Too many subtitle lines
DEBUG 2013-12-05 16:52:48.408 [Thread-47] Too many subtitle lines
DEBUG 2013-12-05 16:52:48.409 [Thread-47] Too many subtitle lines
DEBUG 2013-12-05 16:52:48.420 [Thread-47] Too many subtitle lines
DEBUG 2013-12-05 16:52:48.420 [Thread-47] Too many subtitle lines
DEBUG 2013-12-05 16:52:48.420 [Thread-60] 100.0% complete
DEBUG 2013-12-05 16:52:48.430 [Thread-47] Too many subtitle lines
DEBUG 2013-12-05 16:52:48.430 [Thread-47] Too many subtitle lines
DEBUG 2013-12-05 16:52:48.442 [Thread-47] Too many subtitle lines
DEBUG 2013-12-05 16:52:48.442 [Thread-47] Too many subtitle lines
DEBUG 2013-12-05 16:52:48.453 [Thread-47] Too many subtitle lines
DEBUG 2013-12-05 16:52:48.453 [Thread-47] Too many subtitle lines
DEBUG 2013-12-05 16:52:48.465 [Thread-47] Too many subtitle lines
DEBUG 2013-12-05 16:52:48.465 [Thread-47] Too many subtitle lines
DEBUG 2013-12-05 16:52:48.493 [Thread-47] Too many subtitle lines
DEBUG 2013-12-05 16:52:48.493 [Thread-47] Too many subtitle lines
DEBUG 2013-12-05 16:52:48.504 [Thread-47] Too many subtitle lines
DEBUG 2013-12-05 16:52:48.504 [Thread-47] Too many subtitle lines
DEBUG 2013-12-05 16:52:48.516 [Thread-47] Too many subtitle lines
DEBUG 2013-12-05 16:52:48.516 [Thread-47] Too many subtitle lines
DEBUG 2013-12-05 16:52:48.527 [Thread-47] Too many subtitle lines
DEBUG 2013-12-05 16:52:48.527 [Thread-47] Too many subtitle lines
DEBUG 2013-12-05 16:52:48.539 [Thread-47] Too many subtitle lines
DEBUG 2013-12-05 16:52:48.539 [Thread-47] Too many subtitle lines
DEBUG 2013-12-05 16:52:48.550 [Thread-47] Too many subtitle lines
DEBUG 2013-12-05 16:52:48.550 [Thread-47] Too many subtitle lines
DEBUG 2013-12-05 16:52:48.574 [Thread-47] Too many subtitle lines
DEBUG 2013-12-05 16:52:48.574 [Thread-47] Too many subtitle lines
DEBUG 2013-12-05 16:52:48.584 [Thread-47] Too many subtitle lines
DEBUG 2013-12-05 16:52:48.585 [Thread-47] Too many subtitle lines
DEBUG 2013-12-05 16:52:48.595 [Thread-47] Too many subtitle lines
DEBUG 2013-12-05 16:52:48.595 [Thread-47] Too many subtitle lines
DEBUG 2013-12-05 16:52:48.606 [Thread-47] Too many subtitle lines
DEBUG 2013-12-05 16:52:48.607 [Thread-47] Too many subtitle lines
DEBUG 2013-12-05 16:52:48.618 [Thread-47] Too many subtitle lines
DEBUG 2013-12-05 16:52:48.618 [Thread-47] Too many subtitle lines
DEBUG 2013-12-05 16:52:48.658 [Thread-60] 100.0% complete
DEBUG 2013-12-05 16:52:48.688 [Thread-47] Too many subtitle lines
DEBUG 2013-12-05 16:52:48.699 [Thread-47] Too many subtitle lines
DEBUG 2013-12-05 16:52:48.709 [Thread-47] Too many subtitle lines
DEBUG 2013-12-05 16:52:48.720 [Thread-47] Too many subtitle lines
DEBUG 2013-12-05 16:52:48.744 [Thread-47] Too many subtitle lines
DEBUG 2013-12-05 16:52:48.754 [Thread-47] Too many subtitle lines
DEBUG 2013-12-05 16:52:48.763 [Thread-47] Too many subtitle lines
DEBUG 2013-12-05 16:52:48.772 [Thread-47] Too many subtitle lines
DEBUG 2013-12-05 16:52:48.781 [Thread-47] Too many subtitle lines
DEBUG 2013-12-05 16:52:48.790 [Thread-47] Too many subtitle lines
DEBUG 2013-12-05 16:52:48.800 [Thread-47] Too many subtitle lines
DEBUG 2013-12-05 16:52:48.809 [Thread-47] Too many subtitle lines
DEBUG 2013-12-05 16:52:48.819 [Thread-47] Too many subtitle lines
DEBUG 2013-12-05 16:52:48.819 [Thread-47] Too many subtitle lines
DEBUG 2013-12-05 16:52:48.828 [Thread-47] Too many subtitle lines
DEBUG 2013-12-05 16:52:48.828 [Thread-47] Too many subtitle lines
DEBUG 2013-12-05 16:52:48.837 [Thread-47] Too many subtitle lines
DEBUG 2013-12-05 16:52:48.837 [Thread-47] Too many subtitle lines
DEBUG 2013-12-05 16:52:48.847 [Thread-47] Too many subtitle lines
DEBUG 2013-12-05 16:52:48.847 [Thread-47] Too many subtitle lines
DEBUG 2013-12-05 16:52:48.857 [Thread-47] Too many subtitle lines
DEBUG 2013-12-05 16:52:48.858 [Thread-47] Too many subtitle lines
DEBUG 2013-12-05 16:52:48.870 [Thread-47] Too many subtitle lines
DEBUG 2013-12-05 16:52:48.884 [Thread-47] osd text out of range: bbox [32 1247 0 720], txt [12 31 714 720]
DEBUG 2013-12-05 16:52:48.884 [Thread-47] osd text out of range: bbox [32 1247 0 720], txt [27 55 714 720]
DEBUG 2013-12-05 16:52:48.884 [Thread-47] Too many subtitle lines
DEBUG 2013-12-05 16:52:48.892 [Thread-47] Too many subtitle lines
DEBUG 2013-12-05 16:52:48.893 [Thread-60] 100.0% complete
DEBUG 2013-12-05 16:52:48.902 [Thread-47] osd text out of range: bbox [32 1247 0 720], txt [12 31 714 720]
DEBUG 2013-12-05 16:52:48.902 [Thread-47] osd text out of range: bbox [32 1247 0 720], txt [27 55 714 720]
DEBUG 2013-12-05 16:52:48.902 [Thread-47] Too many subtitle lines
DEBUG 2013-12-05 16:52:48.912 [Thread-47] osd text out of range: bbox [32 1247 0 720], txt [12 40 714 720]
DEBUG 2013-12-05 16:52:48.912 [Thread-47] Too many subtitle lines
DEBUG 2013-12-05 16:52:48.921 [Thread-47] osd text out of range: bbox [32 1247 0 720], txt [0 28 714 720]
DEBUG 2013-12-05 16:52:48.921 [Thread-47] osd text out of range: bbox [32 1247 0 720], txt [24 52 714 720]
DEBUG 2013-12-05 16:52:48.921 [Thread-47] Too many subtitle lines
DEBUG 2013-12-05 16:52:49.144 [Thread-60] 100.0% complete
DEBUG 2013-12-05 16:52:49.370 [Thread-60] 100.0% complete
DEBUG 2013-12-05 16:52:49.604 [Thread-60] 100.0% complete
DEBUG 2013-12-05 16:52:49.838 [Thread-60] 100.0% complete
DEBUG 2013-12-05 16:52:50.098 [Thread-60] 100.0% complete
DEBUG 2013-12-05 16:52:50.334 [Thread-60] 100.0% complete
DEBUG 2013-12-05 16:52:50.575 [Thread-60] 100.0% complete
DEBUG 2013-12-05 16:52:50.841 [Thread-60] 100.0% complete
DEBUG 2013-12-05 16:52:51.087 [Thread-60] 100.0% complete
DEBUG 2013-12-05 16:52:51.324 [Thread-60] 100.0% complete
DEBUG 2013-12-05 16:52:51.588 [Thread-60] 100.0% complete
DEBUG 2013-12-05 16:52:51.814 [Thread-60] 100.0% complete
DEBUG 2013-12-05 16:52:52.048 [Thread-60] 100.0% complete
DEBUG 2013-12-05 16:52:52.307 [Thread-60] 100.0% complete
DEBUG 2013-12-05 16:52:52.550 [Thread-60] 100.0% complete
DEBUG 2013-12-05 16:52:52.708 [Thread-47] osd text out of range: bbox [32 1247 0 720], txt [0 28 714 720]
DEBUG 2013-12-05 16:52:52.708 [Thread-47] osd text out of range: bbox [130 1150 0 720], txt [0 28 714 720]
DEBUG 2013-12-05 16:52:52.709 [Thread-47] osd text out of range: bbox [130 1150 0 720], txt [36 64 714 720]
DEBUG 2013-12-05 16:52:52.709 [Thread-47] osd text out of range: bbox [130 1150 0 720], txt [72 101 714 720]
DEBUG 2013-12-05 16:52:52.709 [Thread-47] osd text out of range: bbox [130 1150 0 720], txt [109 128 714 720]
DEBUG 2013-12-05 16:52:52.709 [Thread-47] osd text out of range: bbox [130 1150 0 720], txt [124 152 714 720]
DEBUG 2013-12-05 16:52:52.709 [Thread-47] osd text out of range: bbox [130 1150 0 720], txt [0 42 714 720]
DEBUG 2013-12-05 16:52:52.709 [Thread-47] osd text out of range: bbox [147 1133 0 720], txt [0 16 714 720]
DEBUG 2013-12-05 16:52:52.709 [Thread-47] osd text out of range: bbox [147 1133 0 720], txt [12 50 714 720]
DEBUG 2013-12-05 16:52:52.709 [Thread-47] osd text out of range: bbox [147 1133 0 720], txt [46 79 714 720]
DEBUG 2013-12-05 16:52:52.709 [Thread-47] osd text out of range: bbox [147 1133 0 720], txt [69 85 714 720]
DEBUG 2013-12-05 16:52:52.709 [Thread-47] osd text out of range: bbox [147 1133 0 720], txt [81 97 714 720]
DEBUG 2013-12-05 16:52:52.709 [Thread-47] osd text out of range: bbox [147 1133 0 720], txt [93 121 714 720]
DEBUG 2013-12-05 16:52:52.709 [Thread-47] osd text out of range: bbox [147 1133 0 720], txt [117 133 714 720]
DEBUG 2013-12-05 16:52:52.709 [Thread-47] osd text out of range: bbox [147 1133 0 720], txt [129 157 714 720]
DEBUG 2013-12-05 16:52:52.709 [Thread-47] osd text out of range: bbox [168 1112 0 720], txt [0 42 714 720]
DEBUG 2013-12-05 16:52:52.709 [Thread-47] osd text out of range: bbox [141 1139 0 720], txt [0 28 714 720]
DEBUG 2013-12-05 16:52:52.709 [Thread-47] osd text out of range: bbox [141 1139 0 720], txt [36 55 714 720]
DEBUG 2013-12-05 16:52:52.709 [Thread-47] osd text out of range: bbox [141 1139 0 720], txt [51 79 714 720]
DEBUG 2013-12-05 16:52:52.709 [Thread-47] osd text out of range: bbox [141 1139 0 720], txt [75 103 714 720]
DEBUG 2013-12-05 16:52:52.709 [Thread-47] osd text out of range: bbox [141 1139 0 720], txt [111 139 714 720]
DEBUG 2013-12-05 16:52:52.709 [Thread-47] osd text out of range: bbox [141 1139 0 720], txt [0 42 714 720]
DEBUG 2013-12-05 16:52:52.709 [Thread-47] osd text out of range: bbox [147 1133 0 720], txt [0 28 714 720]
DEBUG 2013-12-05 16:52:52.709 [Thread-47] osd text out of range: bbox [147 1133 0 720], txt [36 64 714 720]
DEBUG 2013-12-05 16:52:52.709 [Thread-47] osd text out of range: bbox [147 1133 0 720], txt [72 101 714 720]
DEBUG 2013-12-05 16:52:52.709 [Thread-47] osd text out of range: bbox [147 1133 0 720], txt [109 128 714 720]
DEBUG 2013-12-05 16:52:52.709 [Thread-47] osd text out of range: bbox [147 1133 0 720], txt [124 152 714 720]
DEBUG 2013-12-05 16:52:52.709 [Thread-47] osd text out of range: bbox [153 1127 0 720], txt [0 42 714 720]
DEBUG 2013-12-05 16:52:52.709 [Thread-47] osd text out of range: bbox [147 1133 0 720], txt [0 42 714 720]
DEBUG 2013-12-05 16:52:52.709 [Thread-47] osd text out of range: bbox [168 1112 0 720], txt [0 42 714 720]
DEBUG 2013-12-05 16:52:52.709 [Thread-47] Too many subtitle lines
DEBUG 2013-12-05 16:52:52.777 [Thread-60] 100.0% complete
DEBUG 2013-12-05 16:52:53.027 [Thread-60] 100.0% complete
DEBUG 2013-12-05 16:52:53.255 [Thread-60] 100.0% complete
DEBUG 2013-12-05 16:52:53.486 [Thread-60] 100.0% complete
DEBUG 2013-12-05 16:52:53.511 [Thread-47] osd text out of range: bbox [147 1133 0 720], txt [0 28 714 720]
DEBUG 2013-12-05 16:52:53.511 [Thread-47] osd text out of range: bbox [147 1133 0 720], txt [36 55 714 720]
DEBUG 2013-12-05 16:52:53.511 [Thread-47] osd text out of range: bbox [147 1133 0 720], txt [51 79 714 720]
DEBUG 2013-12-05 16:52:53.511 [Thread-47] osd text out of range: bbox [147 1133 0 720], txt [75 103 714 720]
DEBUG 2013-12-05 16:52:53.511 [Thread-47] osd text out of range: bbox [147 1133 0 720], txt [111 139 714 720]
DEBUG 2013-12-05 16:52:53.511 [Thread-47] osd text out of range: bbox [147 1133 0 720], txt [135 163 714 720]
DEBUG 2013-12-05 16:52:53.511 [Thread-47] osd text out of range: bbox [171 1109 0 720], txt [0 42 714 720]
DEBUG 2013-12-05 16:52:53.511 [Thread-47] Too many subtitle lines
DEBUG 2013-12-05 16:52:53.714 [Thread-60] 100.0% complete
DEBUG 2013-12-05 16:52:54.375 [Thread-60] 100.0% complete
DEBUG 2013-12-05 16:52:54.875 [Thread-60] 100.0% complete
DEBUG 2013-12-05 16:52:55.377 [Thread-60] 100.0% complete
DEBUG 2013-12-05 16:52:55.880 [Thread-60] 100.0% complete
DEBUG 2013-12-05 16:52:56.383 [Thread-60] 100.0% complete
DEBUG 2013-12-05 16:52:56.887 [Thread-60] 100.0% complete
DEBUG 2013-12-05 16:52:57.888 [Thread-60] 100.0% complete
DEBUG 2013-12-05 16:52:58.393 [Thread-60] 100.0% complete
DEBUG 2013-12-05 16:52:58.897 [Thread-60] 100.0% complete
DEBUG 2013-12-05 16:52:59.401 [Thread-60] 100.0% complete
DEBUG 2013-12-05 16:52:59.904 [Thread-60] 100.0% complete
DEBUG 2013-12-05 16:53:00.407 [Thread-60] 100.0% complete
DEBUG 2013-12-05 16:53:00.913 [Thread-60] 100.0% complete
DEBUG 2013-12-05 16:53:01.415 [Thread-60] 100.0% complete
DEBUG 2013-12-05 16:53:04.021 [Buffered IO End Checker] Stopping process: tsMuxeR.exe-5
DEBUG 2013-12-05 16:53:04.021 [Buffered IO End Checker] Stopping process: mencoder.exe-6
DEBUG 2013-12-05 16:53:04.021 [Thread-40] Error: null
DEBUG 2013-12-05 16:53:04.021 [Thread-39] Error :null
DEBUG 2013-12-05 16:53:04.021 [Thread-37] Error: null
DEBUG 2013-12-05 16:53:04.021 [Thread-43] Error :null
DEBUG 2013-12-05 16:53:04.021 [Buffered IO End Checker] Stopping process: mencoder.exe-7
DEBUG 2013-12-05 16:53:04.021 [Thread-44] Error: null
DEBUG 2013-12-05 16:53:04.022 [Thread-41] Disconnected pipe: \\.\pipe\1386280360819videoout
DEBUG 2013-12-05 16:53:04.022 [Thread-45] Disconnected pipe: \\.\pipe\1386280360820audioout
Attachments
ums_dbg.zip
(158.21 KiB) Downloaded 180 times

slyr114
Posts: 9
Joined: Fri Dec 06, 2013 9:57 am

Re: Double Subtitles?

Post by slyr114 » Tue Dec 10, 2013 8:01 am

Code: Select all

DEBUG 2013-12-05 16:53:23.034 [New I/O worker #17] Starting "C:\Program Files (x86)\Universal Media Server\win32\ffmpeg.exe" -ss 2 -i "E:\Unsorted\Patlabor\Mobile Police Patlabor\Patlabor.TV.01v2.(Dual.Audio).XVID.[AM].ogm" -an -an -s 320x180 -vframes 1 -f image2 pipe:
DEBUG 2013-12-05 16:53:23.036 [New I/O worker #17] Attaching thread: ffmpeg.exe-10
DEBUG 2013-12-05 16:53:23.053 [Thread-66] ffmpeg version N-58485-ga12b4bd Copyright (c) 2000-2013 the FFmpeg developers
DEBUG 2013-12-05 16:53:23.053 [Thread-66]   built on Nov 26 2013 22:01:46 with gcc 4.8.2 (GCC)
DEBUG 2013-12-05 16:53:23.053 [Thread-66]   configuration: --enable-gpl --enable-version3 --disable-w32threads --enable-avisynth --enable-bzlib --enable-fontconfig --enable-frei0r --enable-gnutls --enable-iconv --enable-libass --enable-libbluray --enable-libcaca --enable-libfreetype --enable-libgsm --enable-libilbc --enable-libmodplug --enable-libmp3lame --enable-libopencore-amrnb --enable-libopencore-amrwb --enable-libopenjpeg --enable-libopus --enable-librtmp --enable-libschroedinger --enable-libsoxr --enable-libspeex --enable-libtheora --enable-libtwolame --enable-libvidstab --enable-libvo-aacenc --enable-libvo-amrwbenc --enable-libvorbis --enable-libvpx --enable-libwavpack --enable-libx264 --enable-libxavs --enable-libxvid --enable-zlib
DEBUG 2013-12-05 16:53:23.053 [Thread-66]   libavutil      52. 55.100 / 52. 55.100
DEBUG 2013-12-05 16:53:23.053 [Thread-66]   libavcodec     55. 44.100 / 55. 44.100
DEBUG 2013-12-05 16:53:23.053 [Thread-66]   libavformat    55. 21.102 / 55. 21.102
DEBUG 2013-12-05 16:53:23.053 [Thread-66]   libavdevice    55.  5.101 / 55.  5.101
DEBUG 2013-12-05 16:53:23.053 [Thread-66]   libavfilter     3. 91.100 /  3. 91.100
DEBUG 2013-12-05 16:53:23.053 [Thread-66]   libswscale      2.  5.101 /  2.  5.101
DEBUG 2013-12-05 16:53:23.053 [Thread-66]   libswresample   0. 17.104 /  0. 17.104
DEBUG 2013-12-05 16:53:23.053 [Thread-66]   libpostproc    52.  3.100 / 52.  3.100
DEBUG 2013-12-05 16:53:23.088 [Thread-66] Input #0, ogg, from 'E:\Unsorted\Patlabor\Mobile Police Patlabor\Patlabor.TV.01v2.(Dual.Audio).XVID.[AM].ogm':
DEBUG 2013-12-05 16:53:23.088 [Thread-66]   Duration: 00:24:38.15, start: 0.000000, bitrate: 989 kb/s
DEBUG 2013-12-05 16:53:23.088 [Thread-66]     Chapter #0.0: start 0.000000, end 722.367000
DEBUG 2013-12-05 16:53:23.088 [Thread-66]     Metadata:
DEBUG 2013-12-05 16:53:23.088 [Thread-66]       title           : Chapter 1
DEBUG 2013-12-05 16:53:23.088 [Thread-66]     Chapter #0.1: start 722.367000, end 1478.149000
DEBUG 2013-12-05 16:53:23.088 [Thread-66]     Metadata:
DEBUG 2013-12-05 16:53:23.088 [Thread-66]       title           : Chapter 2
DEBUG 2013-12-05 16:53:23.089 [Thread-66]     Stream #0:0: Video: mpeg4 (XVID / 0x44495658), yuv420p, 640x480, 29.97 fps, 29.97 tbr, 29.97 tbn, 29.97 tbc
DEBUG 2013-12-05 16:53:23.089 [Thread-66]     Stream #0:1(English[eng]): Audio: vorbis, 48000 Hz, stereo, fltp, 112 kb/s
DEBUG 2013-12-05 16:53:23.089 [Thread-66]     Stream #0:2(Japanese[jpn]): Audio: vorbis, 48000 Hz, stereo, fltp, 112 kb/s
DEBUG 2013-12-05 16:53:23.089 [Thread-66]     Stream #0:3(English[eng]): Subtitle: text
DEBUG 2013-12-05 16:53:23.093 [Thread-66] [swscaler @ 04144060] deprecated pixel format used, make sure you did set range correctly
DEBUG 2013-12-05 16:53:23.095 [Thread-66] Output #0, image2, to 'pipe:':
DEBUG 2013-12-05 16:53:23.095 [Thread-66]   Metadata:
DEBUG 2013-12-05 16:53:23.095 [Thread-66]     encoder         : Lavf55.21.102
DEBUG 2013-12-05 16:53:23.095 [Thread-66]     Chapter #0.0: start 0.000000, end 720.367000
DEBUG 2013-12-05 16:53:23.095 [Thread-66]     Metadata:
DEBUG 2013-12-05 16:53:23.095 [Thread-66]       title           : Chapter 1
DEBUG 2013-12-05 16:53:23.095 [Thread-66]     Chapter #0.1: start 720.367000, end 1476.149000
DEBUG 2013-12-05 16:53:23.095 [Thread-66]     Metadata:
DEBUG 2013-12-05 16:53:23.095 [Thread-66]       title           : Chapter 2
DEBUG 2013-12-05 16:53:23.095 [Thread-66]     Stream #0:0: Video: mjpeg, yuvj420p, 320x180, q=2-31, 200 kb/s, 90k tbn, 29.97 tbc
DEBUG 2013-12-05 16:53:23.095 [Thread-66] Stream mapping:
DEBUG 2013-12-05 16:53:23.095 [Thread-66]   Stream #0:0 -> #0:0 (mpeg4 -> mjpeg)
DEBUG 2013-12-05 16:53:23.095 [Thread-66] Press [q] to stop, [?] for help
DEBUG 2013-12-05 16:53:23.095 [Thread-66] [mpeg4 @ 03d0b360] Video uses a non-standard and wasteful way to store B-frames ('packed B-frames'). Consider using a tool like VirtualDub or avidemux to fix it.
DEBUG 2013-12-05 16:53:23.132 [Thread-66] frame=    1 fps=0.0 q=0.0 Lsize=N/A time=00:00:00.03 bitrate=N/A    
DEBUG 2013-12-05 16:53:23.132 [Thread-66] 
DEBUG 2013-12-05 16:53:23.132 [Thread-66] video:12kB audio:0kB subtitle:0 global headers:0kB muxing overhead -100.183226%
DEBUG 2013-12-05 16:53:24.851 [New I/O worker #15] Starting "C:\Program Files (x86)\Universal Media Server\win32\ffmpeg.exe" -ss 2 -i "E:\Unsorted\Patlabor\Mobile Police Patlabor\Patlabor.TV.03v2.(Dual.Audio).XVID.[AM].ogm" -an -an -s 320x180 -vframes 1 -f image2 pipe:
DEBUG 2013-12-05 16:53:24.852 [New I/O worker #15] Attaching thread: ffmpeg.exe-11
DEBUG 2013-12-05 16:53:24.870 [Thread-70] ffmpeg version N-58485-ga12b4bd Copyright (c) 2000-2013 the FFmpeg developers
DEBUG 2013-12-05 16:53:24.870 [Thread-70]   built on Nov 26 2013 22:01:46 with gcc 4.8.2 (GCC)
DEBUG 2013-12-05 16:53:24.870 [Thread-70]   configuration: --enable-gpl --enable-version3 --disable-w32threads --enable-avisynth --enable-bzlib --enable-fontconfig --enable-frei0r --enable-gnutls --enable-iconv --enable-libass --enable-libbluray --enable-libcaca --enable-libfreetype --enable-libgsm --enable-libilbc --enable-libmodplug --enable-libmp3lame --enable-libopencore-amrnb --enable-libopencore-amrwb --enable-libopenjpeg --enable-libopus --enable-librtmp --enable-libschroedinger --enable-libsoxr --enable-libspeex --enable-libtheora --enable-libtwolame --enable-libvidstab --enable-libvo-aacenc --enable-libvo-amrwbenc --enable-libvorbis --enable-libvpx --enable-libwavpack --enable-libx264 --enable-libxavs --enable-libxvid --enable-zlib
DEBUG 2013-12-05 16:53:24.870 [Thread-70]   libavutil      52. 55.100 / 52. 55.100
DEBUG 2013-12-05 16:53:24.870 [Thread-70]   libavcodec     55. 44.100 / 55. 44.100
DEBUG 2013-12-05 16:53:24.870 [Thread-70]   libavformat    55. 21.102 / 55. 21.102
DEBUG 2013-12-05 16:53:24.870 [Thread-70]   libavdevice    55.  5.101 / 55.  5.101
DEBUG 2013-12-05 16:53:24.870 [Thread-70]   libavfilter     3. 91.100 /  3. 91.100
DEBUG 2013-12-05 16:53:24.870 [Thread-70]   libswscale      2.  5.101 /  2.  5.101
DEBUG 2013-12-05 16:53:24.870 [Thread-70]   libswresample   0. 17.104 /  0. 17.104
DEBUG 2013-12-05 16:53:24.870 [Thread-70]   libpostproc    52.  3.100 / 52.  3.100
DEBUG 2013-12-05 16:53:24.917 [Thread-70] Input #0, ogg, from 'E:\Unsorted\Patlabor\Mobile Police Patlabor\Patlabor.TV.03v2.(Dual.Audio).XVID.[AM].ogm':
DEBUG 2013-12-05 16:53:24.917 [Thread-70]   Duration: 00:24:37.87, start: 0.000000, bitrate: 998 kb/s
DEBUG 2013-12-05 16:53:24.917 [Thread-70]     Chapter #0.0: start 0.000000, end 719.333000
DEBUG 2013-12-05 16:53:24.917 [Thread-70]     Metadata:
DEBUG 2013-12-05 16:53:24.917 [Thread-70]       title           : Chapter 5
DEBUG 2013-12-05 16:53:24.917 [Thread-70]     Chapter #0.1: start 719.333000, end 1477.875000
DEBUG 2013-12-05 16:53:24.917 [Thread-70]     Metadata:
DEBUG 2013-12-05 16:53:24.917 [Thread-70]       title           : Chapter 6
DEBUG 2013-12-05 16:53:24.917 [Thread-70]     Stream #0:0: Video: mpeg4 (XVID / 0x44495658), yuv420p, 640x480, 29.97 fps, 29.97 tbr, 29.97 tbn, 29.97 tbc
DEBUG 2013-12-05 16:53:24.917 [Thread-70]     Stream #0:1(English[eng]): Audio: vorbis, 48000 Hz, stereo, fltp, 112 kb/s
DEBUG 2013-12-05 16:53:24.917 [Thread-70]     Stream #0:2(Japanese[jpn]): Audio: vorbis, 48000 Hz, stereo, fltp, 112 kb/s
DEBUG 2013-12-05 16:53:24.917 [Thread-70]     Stream #0:3(English[eng]): Subtitle: text
DEBUG 2013-12-05 16:53:24.920 [Thread-70] [swscaler @ 02409720] deprecated pixel format used, make sure you did set range correctly
DEBUG 2013-12-05 16:53:24.922 [Thread-70] Output #0, image2, to 'pipe:':
DEBUG 2013-12-05 16:53:24.922 [Thread-70]   Metadata:
DEBUG 2013-12-05 16:53:24.922 [Thread-70]     encoder         : Lavf55.21.102
DEBUG 2013-12-05 16:53:24.922 [Thread-70]     Chapter #0.0: start 0.000000, end 717.333000
DEBUG 2013-12-05 16:53:24.922 [Thread-70]     Metadata:
DEBUG 2013-12-05 16:53:24.922 [Thread-70]       title           : Chapter 5
DEBUG 2013-12-05 16:53:24.922 [Thread-70]     Chapter #0.1: start 717.333000, end 1475.875000
DEBUG 2013-12-05 16:53:24.922 [Thread-70]     Metadata:
DEBUG 2013-12-05 16:53:24.922 [Thread-70]       title           : Chapter 6
DEBUG 2013-12-05 16:53:24.923 [Thread-70]     Stream #0:0: Video: mjpeg, yuvj420p, 320x180, q=2-31, 200 kb/s, 90k tbn, 29.97 tbc
DEBUG 2013-12-05 16:53:24.923 [Thread-70] Stream mapping:
DEBUG 2013-12-05 16:53:24.923 [Thread-70]   Stream #0:0 -> #0:0 (mpeg4 -> mjpeg)
DEBUG 2013-12-05 16:53:24.923 [Thread-70] Press [q] to stop, [?] for help
DEBUG 2013-12-05 16:53:24.923 [Thread-70] [mpeg4 @ 0243a6a0] Video uses a non-standard and wasteful way to store B-frames ('packed B-frames'). Consider using a tool like VirtualDub or avidemux to fix it.
DEBUG 2013-12-05 16:53:24.963 [Thread-70] frame=    1 fps=0.0 q=0.0 Lsize=N/A time=00:00:00.03 bitrate=N/A    
DEBUG 2013-12-05 16:53:24.963 [Thread-70] 
DEBUG 2013-12-05 16:53:24.963 [Thread-70] video:13kB audio:0kB subtitle:0 global headers:0kB muxing overhead -100.169766%
DEBUG 2013-12-05 16:53:25.511 [New I/O worker #17] Starting "C:\Program Files (x86)\Universal Media Server\win32\ffmpeg.exe" -ss 2 -i "E:\Unsorted\Patlabor\Mobile Police Patlabor\Patlabor.TV.04v2.(Dual.Audio).XVID.[AM].ogm" -an -an -s 320x180 -vframes 1 -f image2 pipe:
DEBUG 2013-12-05 16:53:25.512 [New I/O worker #17] Attaching thread: ffmpeg.exe-12
DEBUG 2013-12-05 16:53:25.530 [Thread-74] ffmpeg version N-58485-ga12b4bd Copyright (c) 2000-2013 the FFmpeg developers
DEBUG 2013-12-05 16:53:25.530 [Thread-74]   built on Nov 26 2013 22:01:46 with gcc 4.8.2 (GCC)
DEBUG 2013-12-05 16:53:25.530 [Thread-74]   configuration: --enable-gpl --enable-version3 --disable-w32threads --enable-avisynth --enable-bzlib --enable-fontconfig --enable-frei0r --enable-gnutls --enable-iconv --enable-libass --enable-libbluray --enable-libcaca --enable-libfreetype --enable-libgsm --enable-libilbc --enable-libmodplug --enable-libmp3lame --enable-libopencore-amrnb --enable-libopencore-amrwb --enable-libopenjpeg --enable-libopus --enable-librtmp --enable-libschroedinger --enable-libsoxr --enable-libspeex --enable-libtheora --enable-libtwolame --enable-libvidstab --enable-libvo-aacenc --enable-libvo-amrwbenc --enable-libvorbis --enable-libvpx --enable-libwavpack --enable-libx264 --enable-libxavs --enable-libxvid --enable-zlib
DEBUG 2013-12-05 16:53:25.530 [Thread-74]   libavutil      52. 55.100 / 52. 55.100
DEBUG 2013-12-05 16:53:25.530 [Thread-74]   libavcodec     55. 44.100 / 55. 44.100
DEBUG 2013-12-05 16:53:25.530 [Thread-74]   libavformat    55. 21.102 / 55. 21.102
DEBUG 2013-12-05 16:53:25.530 [Thread-74]   libavdevice    55.  5.101 / 55.  5.101
DEBUG 2013-12-05 16:53:25.530 [Thread-74]   libavfilter     3. 91.100 /  3. 91.100
DEBUG 2013-12-05 16:53:25.530 [Thread-74]   libswscale      2.  5.101 /  2.  5.101
DEBUG 2013-12-05 16:53:25.530 [Thread-74]   libswresample   0. 17.104 /  0. 17.104
DEBUG 2013-12-05 16:53:25.530 [Thread-74]   libpostproc    52.  3.100 / 52.  3.100
DEBUG 2013-12-05 16:53:25.581 [Thread-74] Input #0, ogg, from 'E:\Unsorted\Patlabor\Mobile Police Patlabor\Patlabor.TV.04v2.(Dual.Audio).XVID.[AM].ogm':
DEBUG 2013-12-05 16:53:25.581 [Thread-74]   Duration: 00:24:38.01, start: 0.000000, bitrate: 994 kb/s
DEBUG 2013-12-05 16:53:25.581 [Thread-74]     Chapter #0.0: start 0.000000, end 719.333000
DEBUG 2013-12-05 16:53:25.581 [Thread-74]     Metadata:
DEBUG 2013-12-05 16:53:25.581 [Thread-74]       title           : Chapter 7
DEBUG 2013-12-05 16:53:25.581 [Thread-74]     Chapter #0.1: start 719.333000, end 1478.011000
DEBUG 2013-12-05 16:53:25.581 [Thread-74]     Metadata:
DEBUG 2013-12-05 16:53:25.581 [Thread-74]       title           : Chapter 8
DEBUG 2013-12-05 16:53:25.582 [Thread-74]     Stream #0:0: Video: mpeg4 (XVID / 0x44495658), yuv420p, 640x480, 29.97 fps, 29.97 tbr, 29.97 tbn, 29.97 tbc
DEBUG 2013-12-05 16:53:25.582 [Thread-74]     Stream #0:1(English[eng]): Audio: vorbis, 48000 Hz, stereo, fltp, 112 kb/s
DEBUG 2013-12-05 16:53:25.582 [Thread-74]     Stream #0:2(Japanese[jpn]): Audio: vorbis, 48000 Hz, stereo, fltp, 112 kb/s
DEBUG 2013-12-05 16:53:25.582 [Thread-74]     Stream #0:3(English[eng]): Subtitle: text
DEBUG 2013-12-05 16:53:25.585 [Thread-74] [swscaler @ 03d47c00] deprecated pixel format used, make sure you did set range correctly
DEBUG 2013-12-05 16:53:25.586 [Thread-74] Output #0, image2, to 'pipe:':
DEBUG 2013-12-05 16:53:25.587 [Thread-74]   Metadata:
DEBUG 2013-12-05 16:53:25.587 [Thread-74]     encoder         : Lavf55.21.102
DEBUG 2013-12-05 16:53:25.587 [Thread-74]     Chapter #0.0: start 0.000000, end 717.333000
DEBUG 2013-12-05 16:53:25.587 [Thread-74]     Metadata:
DEBUG 2013-12-05 16:53:25.587 [Thread-74]       title           : Chapter 7
DEBUG 2013-12-05 16:53:25.587 [Thread-74]     Chapter #0.1: start 717.333000, end 1476.011000
DEBUG 2013-12-05 16:53:25.587 [Thread-74]     Metadata:
DEBUG 2013-12-05 16:53:25.587 [Thread-74]       title           : Chapter 8
DEBUG 2013-12-05 16:53:25.587 [Thread-74]     Stream #0:0: Video: mjpeg, yuvj420p, 320x180, q=2-31, 200 kb/s, 90k tbn, 29.97 tbc
DEBUG 2013-12-05 16:53:25.587 [Thread-74] Stream mapping:
DEBUG 2013-12-05 16:53:25.587 [Thread-74]   Stream #0:0 -> #0:0 (mpeg4 -> mjpeg)
DEBUG 2013-12-05 16:53:25.587 [Thread-74] Press [q] to stop, [?] for help
DEBUG 2013-12-05 16:53:25.587 [Thread-74] [mpeg4 @ 0407ee40] Video uses a non-standard and wasteful way to store B-frames ('packed B-frames'). Consider using a tool like VirtualDub or avidemux to fix it.
DEBUG 2013-12-05 16:53:25.626 [Thread-74] frame=    1 fps=0.0 q=0.0 Lsize=N/A time=00:00:00.03 bitrate=N/A    
DEBUG 2013-12-05 16:53:25.626 [Thread-74] 
DEBUG 2013-12-05 16:53:25.626 [Thread-74] video:12kB audio:0kB subtitle:0 global headers:0kB muxing overhead -100.173147%
DEBUG 2013-12-05 16:53:25.637 [Buffered IO End Checker] Stopping process: ffmpeg.exe-10
DEBUG 2013-12-05 16:53:26.058 [New I/O worker #11] Starting "C:\Program Files (x86)\Universal Media Server\win32\ffmpeg.exe" -ss 2 -i "E:\Unsorted\Patlabor\Mobile Police Patlabor\Patlabor.TV.05v2.(Dual.Audio).XVID.[AM].ogm" -an -an -s 320x180 -vframes 1 -f image2 pipe:
DEBUG 2013-12-05 16:53:26.059 [New I/O worker #11] Attaching thread: ffmpeg.exe-13
DEBUG 2013-12-05 16:53:26.077 [Thread-78] ffmpeg version N-58485-ga12b4bd Copyright (c) 2000-2013 the FFmpeg developers
DEBUG 2013-12-05 16:53:26.077 [Thread-78]   built on Nov 26 2013 22:01:46 with gcc 4.8.2 (GCC)
DEBUG 2013-12-05 16:53:26.077 [Thread-78]   configuration: --enable-gpl --enable-version3 --disable-w32threads --enable-avisynth --enable-bzlib --enable-fontconfig --enable-frei0r --enable-gnutls --enable-iconv --enable-libass --enable-libbluray --enable-libcaca --enable-libfreetype --enable-libgsm --enable-libilbc --enable-libmodplug --enable-libmp3lame --enable-libopencore-amrnb --enable-libopencore-amrwb --enable-libopenjpeg --enable-libopus --enable-librtmp --enable-libschroedinger --enable-libsoxr --enable-libspeex --enable-libtheora --enable-libtwolame --enable-libvidstab --enable-libvo-aacenc --enable-libvo-amrwbenc --enable-libvorbis --enable-libvpx --enable-libwavpack --enable-libx264 --enable-libxavs --enable-libxvid --enable-zlib
DEBUG 2013-12-05 16:53:26.077 [Thread-78]   libavutil      52. 55.100 / 52. 55.100
DEBUG 2013-12-05 16:53:26.077 [Thread-78]   libavcodec     55. 44.100 / 55. 44.100
DEBUG 2013-12-05 16:53:26.077 [Thread-78]   libavformat    55. 21.102 / 55. 21.102
DEBUG 2013-12-05 16:53:26.077 [Thread-78]   libavdevice    55.  5.101 / 55.  5.101
DEBUG 2013-12-05 16:53:26.077 [Thread-78]   libavfilter     3. 91.100 /  3. 91.100
DEBUG 2013-12-05 16:53:26.077 [Thread-78]   libswscale      2.  5.101 /  2.  5.101
DEBUG 2013-12-05 16:53:26.077 [Thread-78]   libswresample   0. 17.104 /  0. 17.104
DEBUG 2013-12-05 16:53:26.077 [Thread-78]   libpostproc    52.  3.100 / 52.  3.100
DEBUG 2013-12-05 16:53:26.096 [New I/O worker #13] Starting transcode/remux of Patlabor.TV.02v2.(Dual.Audio).XVID.[AM].ogm with media info: container: ogg, bitrate: 997130, size: 184210500, video codec: mp4, duration: 00:24:37.00, width: 640, height: 480, frame rate: 29.970, thumb size : 12181, muxing mode: null, mime type: video/mp4
	Audio track id: 0, lang: en, flavor: null, audio codec: ogg, sample frequency:48000, number of channels: 2, bits per sample: 16, artist: , album: , song name: , year: 0, track: 0
	Audio track id: 1, lang: ja, flavor: null, audio codec: ogg, sample frequency:48000, number of channels: 2, bits per sample: 16, artist: , album: , song name: , year: 0, track: 0
	Subtitle track id: 0, type: SUBRIP, flavor: null, lang: en, externalFileCharacterSet: null
DEBUG 2013-12-05 16:53:26.100 [New I/O worker #13] Creating pipe \\.\pipe\mencoder1386280406100
DEBUG 2013-12-05 16:53:26.108 [Thread-81] Waiting for pipe connection \\.\pipe\mencoder1386280406100
DEBUG 2013-12-05 16:53:26.109 [mencoder.exe-14] Starting "C:\Program Files (x86)\Universal Media Server\win32\mencoder.exe" -ss 85.0 "E:\Unsorted\Patlabor\Mobile Police Patlabor\Patlabor.TV.02v2.(Dual.Audio).XVID.[AM].ogm" -msglevel statusline=2 -oac lavc -of mpeg -mpegopts format=mpeg2:muxrate=500000:vbuf_size=1194:abuf_size=64 -ovc lavc -channels 6 -lavdopts debug=0:threads=4 -lavcopts autoaspect=1:vcodec=mpeg2video:acodec=ac3:abitrate=448:threads=4:keyint=25:vqscale=1:vqmin=2:vqmax=3:vrc_maxrate=499000:vrc_buf_size=1835 -font C:\Windows\Fonts\Arial.ttf -subfont-text-scale 3 -subfont-outline 1 -subfont-blur 1 -subpos 98 -nofontconfig -aid 1 -noautosub -sid 0 -ofps 30000/1001 -lavdopts fast -mc 0 -noskip -af lavcresample=48000 -srate 48000 -o \\.\pipe\mencoder1386280406100
DEBUG 2013-12-05 16:53:26.109 [Thread-78] Input #0, ogg, from 'E:\Unsorted\Patlabor\Mobile Police Patlabor\Patlabor.TV.05v2.(Dual.Audio).XVID.[AM].ogm':
DEBUG 2013-12-05 16:53:26.109 [Thread-78]   Duration: 00:26:04.96, start: 0.000000, bitrate: 949 kb/s
DEBUG 2013-12-05 16:53:26.109 [Thread-78]     Chapter #0.0: start 0.000000, end 664.300000
DEBUG 2013-12-05 16:53:26.109 [Thread-78]     Metadata:
DEBUG 2013-12-05 16:53:26.109 [Thread-78]       title           : Chapter 9
DEBUG 2013-12-05 16:53:26.109 [Thread-78]     Chapter #0.1: start 664.300000, end 1564.965000
DEBUG 2013-12-05 16:53:26.109 [Thread-78]     Metadata:
DEBUG 2013-12-05 16:53:26.109 [Thread-78]       title           : Chapter 10
DEBUG 2013-12-05 16:53:26.109 [Thread-78]     Stream #0:0: Video: mpeg4 (XVID / 0x44495658), yuv420p, 640x480, 29.97 fps, 29.97 tbr, 29.97 tbn, 29.97 tbc
DEBUG 2013-12-05 16:53:26.109 [Thread-78]     Stream #0:1(English[eng]): Audio: vorbis, 48000 Hz, stereo, fltp, 112 kb/s
DEBUG 2013-12-05 16:53:26.109 [Thread-78]     Stream #0:2(Japanese[jpn]): Audio: vorbis, 48000 Hz, stereo, fltp, 112 kb/s
DEBUG 2013-12-05 16:53:26.109 [mencoder.exe-14] Reading pipe: \\.\pipe\mencoder1386280406100
DEBUG 2013-12-05 16:53:26.109 [Thread-78]     Stream #0:3(English[eng]): Subtitle: text
DEBUG 2013-12-05 16:53:26.109 [mencoder.exe-14] Attaching thread: mencoder.exe-14
DEBUG 2013-12-05 16:53:26.112 [Thread-78] [swscaler @ 03fa0060] deprecated pixel format used, make sure you did set range correctly
DEBUG 2013-12-05 16:53:26.114 [Thread-78] Output #0, image2, to 'pipe:':
DEBUG 2013-12-05 16:53:26.114 [Thread-78]   Metadata:
DEBUG 2013-12-05 16:53:26.114 [Thread-78]     encoder         : Lavf55.21.102
DEBUG 2013-12-05 16:53:26.114 [Thread-78]     Chapter #0.0: start 0.000000, end 662.300000
DEBUG 2013-12-05 16:53:26.114 [Thread-78]     Metadata:
DEBUG 2013-12-05 16:53:26.114 [Thread-78]       title           : Chapter 9
DEBUG 2013-12-05 16:53:26.114 [Thread-78]     Chapter #0.1: start 662.300000, end 1562.965000
DEBUG 2013-12-05 16:53:26.114 [Thread-78]     Metadata:
DEBUG 2013-12-05 16:53:26.114 [Thread-78]       title           : Chapter 10
DEBUG 2013-12-05 16:53:26.114 [Thread-78]     Stream #0:0: Video: mjpeg, yuvj420p, 320x180, q=2-31, 200 kb/s, 90k tbn, 29.97 tbc
DEBUG 2013-12-05 16:53:26.114 [Thread-78] Stream mapping:
DEBUG 2013-12-05 16:53:26.114 [Thread-78]   Stream #0:0 -> #0:0 (mpeg4 -> mjpeg)
DEBUG 2013-12-05 16:53:26.114 [Thread-78] Press [q] to stop, [?] for help
DEBUG 2013-12-05 16:53:26.114 [Thread-78] [mpeg4 @ 02399640] Video uses a non-standard and wasteful way to store B-frames ('packed B-frames'). Consider using a tool like VirtualDub or avidemux to fix it.
DEBUG 2013-12-05 16:53:26.121 [Thread-85] MEncoder SB53 (C) 2000-2013 MPlayer Team
DEBUG 2013-12-05 16:53:26.121 [Thread-85] Custom build by SubJunk, http://www.spirton.com
DEBUG 2013-12-05 16:53:26.121 [Thread-85] 
DEBUG 2013-12-05 16:53:26.123 [Thread-85] success: format: 0  data: 0x0 - 0xafad444
DEBUG 2013-12-05 16:53:26.123 [Thread-85] libavformat version 55.21.100 (internal)
DEBUG 2013-12-05 16:53:26.126 [Thread-85] libavformat file format detected.
DEBUG 2013-12-05 16:53:26.129 [Thread-85] [lavf] stream 0: video (mpeg4), -vid 0
DEBUG 2013-12-05 16:53:26.130 [Thread-85] [lavf] stream 1: audio (vorbis), -aid 0, -alang English[eng]
DEBUG 2013-12-05 16:53:26.130 [Thread-85] [lavf] stream 2: audio (vorbis), -aid 1, -alang Japanese[jpn]
DEBUG 2013-12-05 16:53:26.130 [Thread-85] [lavf] stream 3: subtitle (text), -sid 0, -slang English[eng]
DEBUG 2013-12-05 16:53:26.130 [Thread-85] VIDEO:  [MP4V]  640x480  0bpp  29.970 fps    0.0 kbps ( 0.0 kbyte/s)
DEBUG 2013-12-05 16:53:26.130 [Thread-85] [V] filefmt:44  fourcc:0x5634504D  size:640x480  fps:29.970  ftime:=0.0334
DEBUG 2013-12-05 16:53:26.130 [Thread-85] ==========================================================================
DEBUG 2013-12-05 16:53:26.130 [Thread-85] Opening audio decoder: [ffmpeg] FFmpeg/libavcodec audio decoders
DEBUG 2013-12-05 16:53:26.130 [Thread-85] libavcodec version 55.41.100 (internal)
DEBUG 2013-12-05 16:53:26.131 [Thread-85] AUDIO: 48000 Hz, 2 ch, floatle, 112.0 kbit/3.65% (ratio: 14000->384000)
DEBUG 2013-12-05 16:53:26.131 [Thread-85] Selected audio codec: [ffvorbis] afm: ffmpeg (FFmpeg Vorbis)
DEBUG 2013-12-05 16:53:26.131 [Thread-85] ==========================================================================
DEBUG 2013-12-05 16:53:26.131 [Thread-81] Result of \\.\pipe\mencoder1386280406100 : true
DEBUG 2013-12-05 16:53:26.131 [Thread-85] PACKET SIZE: 2048 bytes, deltascr: 884
DEBUG 2013-12-05 16:53:26.132 [Thread-85] Opening video filter: [expand osd=1]
DEBUG 2013-12-05 16:53:26.132 [Thread-85] Expand: -1 x -1, -1 ; -1, osd: 1, aspect: 0.000000, round: 1
DEBUG 2013-12-05 16:53:26.132 [Thread-85] ==========================================================================
DEBUG 2013-12-05 16:53:26.132 [Thread-85] Opening video decoder: [ffmpeg] FFmpeg's libavcodec codec family
DEBUG 2013-12-05 16:53:26.132 [Thread-85] Selected video codec: [ffodivx] vfm: ffmpeg (FFmpeg MPEG-4)
DEBUG 2013-12-05 16:53:26.132 [Thread-85] ==========================================================================
DEBUG 2013-12-05 16:53:26.133 [Thread-84] [ac3 @ 01da33e0]Channel layout not specified
DEBUG 2013-12-05 16:53:26.133 [Thread-84] [ac3 @ 01da33e0]No channel layout specified. The encoder will guess the layout, but it might be incorrect.
DEBUG 2013-12-05 16:53:26.153 [Thread-78] frame=    1 fps=0.0 q=0.0 Lsize=N/A time=00:00:00.03 bitrate=N/A    
DEBUG 2013-12-05 16:53:26.153 [Thread-78] 
DEBUG 2013-12-05 16:53:26.153 [Thread-78] video:12kB audio:0kB subtitle:0 global headers:0kB muxing overhead -100.175355%
DEBUG 2013-12-05 16:53:26.188 [Thread-84] Limiting audio preload to 0.4s.
DEBUG 2013-12-05 16:53:26.188 [Thread-84] Increasing audio density to 4.
DEBUG 2013-12-05 16:53:26.190 [Thread-85] [mpeg4 @ 01da33e0]Video uses a non-standard and wasteful way to store B-frames ('packed B-frames'). Consider using a tool like VirtualDub or avidemux to fix it.
DEBUG 2013-12-05 16:53:26.190 [Thread-85] Movie-Aspect is undefined - no prescaling applied.
DEBUG 2013-12-05 16:53:26.191 [Thread-85] videocodec: libavcodec (640x480 fourcc=3267706d [mpg2])
DEBUG 2013-12-05 16:53:26.191 [Thread-85] [VE_LAVC] Using constant qscale = 1.000000 (VBR).
DEBUG 2013-12-05 16:53:26.196 [Thread-84] [VD_FFMPEG] DRI failure.
DEBUG 2013-12-05 16:53:26.199 [Thread-85] Movie-Aspect is 1.33:1 - prescaling to correct movie aspect.
DEBUG 2013-12-05 16:53:26.200 [Thread-84] [VD_FFMPEG] DRI failure.
DEBUG 2013-12-05 16:53:26.202 [Thread-85] Writing header...
DEBUG 2013-12-05 16:53:26.202 [Thread-85] INITV: 0.200, 0.167, fps: 29.970
DEBUG 2013-12-05 16:53:26.202 [Thread-85] 
INFO  2013-12-05 16:53:26.209 [StartPlaying Event] Started playing Patlabor.TV.02v2.(Dual.Audio).XVID.[AM].ogm on your PlayStation 3
DEBUG 2013-12-05 16:53:26.210 [StartPlaying Event] The full filename of which is: E:\Unsorted\Patlabor\Mobile Police Patlabor\Patlabor.TV.02v2.(Dual.Audio).XVID.[AM].ogm and the address of the renderer is: 192.168.0.6
DEBUG 2013-12-05 16:53:26.214 [New I/O worker #15] Requesting time seek: 85.0 seconds
DEBUG 2013-12-05 16:53:26.215 [External Process Stopper] Stopping process: mencoder.exe-14
DEBUG 2013-12-05 16:53:26.219 [New I/O worker #15] Creating pipe \\.\pipe\mencoder1386280406219
DEBUG 2013-12-05 16:53:26.240 [Thread-86] Waiting for pipe connection \\.\pipe\mencoder1386280406219
DEBUG 2013-12-05 16:53:26.240 [mencoder.exe-15] Starting "C:\Program Files (x86)\Universal Media Server\win32\mencoder.exe" -ss 85.0 "E:\Unsorted\Patlabor\Mobile Police Patlabor\Patlabor.TV.02v2.(Dual.Audio).XVID.[AM].ogm" -msglevel statusline=2 -oac lavc -of mpeg -mpegopts format=mpeg2:muxrate=500000:vbuf_size=1194:abuf_size=64 -ovc lavc -channels 6 -lavdopts debug=0:threads=4 -lavcopts autoaspect=1:vcodec=mpeg2video:acodec=ac3:abitrate=448:threads=4:keyint=25:vqscale=1:vqmin=2:vqmax=3:vrc_maxrate=499000:vrc_buf_size=1835 -font C:\Windows\Fonts\Arial.ttf -subfont-text-scale 3 -subfont-outline 1 -subfont-blur 1 -subpos 98 -nofontconfig -aid 1 -noautosub -sid 0 -ofps 30000/1001 -lavdopts fast -mc 0 -noskip -af lavcresample=48000 -srate 48000 -o \\.\pipe\mencoder1386280406219
DEBUG 2013-12-05 16:53:26.241 [mencoder.exe-15] Reading pipe: \\.\pipe\mencoder1386280406219
DEBUG 2013-12-05 16:53:26.241 [mencoder.exe-15] Attaching thread: mencoder.exe-15
DEBUG 2013-12-05 16:53:26.251 [Thread-90] MEncoder SB53 (C) 2000-2013 MPlayer Team
DEBUG 2013-12-05 16:53:26.251 [Thread-90] Custom build by SubJunk, http://www.spirton.com
DEBUG 2013-12-05 16:53:26.251 [Thread-90] 
DEBUG 2013-12-05 16:53:26.253 [Thread-90] success: format: 0  data: 0x0 - 0xafad444
DEBUG 2013-12-05 16:53:26.253 [Thread-90] libavformat version 55.21.100 (internal)
DEBUG 2013-12-05 16:53:26.256 [Thread-90] libavformat file format detected.
DEBUG 2013-12-05 16:53:26.259 [Thread-90] [lavf] stream 0: video (mpeg4), -vid 0
DEBUG 2013-12-05 16:53:26.259 [Thread-90] [lavf] stream 1: audio (vorbis), -aid 0, -alang English[eng]
DEBUG 2013-12-05 16:53:26.259 [Thread-90] [lavf] stream 2: audio (vorbis), -aid 1, -alang Japanese[jpn]
DEBUG 2013-12-05 16:53:26.259 [Thread-90] [lavf] stream 3: subtitle (text), -sid 0, -slang English[eng]
DEBUG 2013-12-05 16:53:26.259 [Thread-90] VIDEO:  [MP4V]  640x480  0bpp  29.970 fps    0.0 kbps ( 0.0 kbyte/s)
DEBUG 2013-12-05 16:53:26.259 [Thread-90] [V] filefmt:44  fourcc:0x5634504D  size:640x480  fps:29.970  ftime:=0.0334
DEBUG 2013-12-05 16:53:26.259 [Thread-90] ==========================================================================
DEBUG 2013-12-05 16:53:26.260 [Thread-90] Opening audio decoder: [ffmpeg] FFmpeg/libavcodec audio decoders
DEBUG 2013-12-05 16:53:26.260 [Thread-90] libavcodec version 55.41.100 (internal)
DEBUG 2013-12-05 16:53:26.261 [Thread-90] AUDIO: 48000 Hz, 2 ch, floatle, 112.0 kbit/3.65% (ratio: 14000->384000)
DEBUG 2013-12-05 16:53:26.261 [Thread-90] Selected audio codec: [ffvorbis] afm: ffmpeg (FFmpeg Vorbis)
DEBUG 2013-12-05 16:53:26.261 [Thread-90] ==========================================================================
DEBUG 2013-12-05 16:53:26.261 [Thread-86] Result of \\.\pipe\mencoder1386280406219 : true
DEBUG 2013-12-05 16:53:26.261 [Thread-90] PACKET SIZE: 2048 bytes, deltascr: 884
DEBUG 2013-12-05 16:53:26.261 [Thread-90] Opening video filter: [expand osd=1]
DEBUG 2013-12-05 16:53:26.261 [Thread-90] Expand: -1 x -1, -1 ; -1, osd: 1, aspect: 0.000000, round: 1
DEBUG 2013-12-05 16:53:26.261 [Thread-90] ==========================================================================
DEBUG 2013-12-05 16:53:26.261 [Thread-90] Opening video decoder: [ffmpeg] FFmpeg's libavcodec codec family
DEBUG 2013-12-05 16:53:26.262 [Thread-90] Selected video codec: [ffodivx] vfm: ffmpeg (FFmpeg MPEG-4)
DEBUG 2013-12-05 16:53:26.262 [Thread-90] ==========================================================================
DEBUG 2013-12-05 16:53:26.262 [Thread-89] [ac3 @ 01da33e0]Channel layout not specified
DEBUG 2013-12-05 16:53:26.262 [Thread-89] [ac3 @ 01da33e0]No channel layout specified. The encoder will guess the layout, but it might be incorrect.
DEBUG 2013-12-05 16:53:26.266 [Thread-89] Limiting audio preload to 0.4s.
DEBUG 2013-12-05 16:53:26.266 [Thread-89] Increasing audio density to 4.
DEBUG 2013-12-05 16:53:26.268 [Thread-90] [mpeg4 @ 01da33e0]Video uses a non-standard and wasteful way to store B-frames ('packed B-frames'). Consider using a tool like VirtualDub or avidemux to fix it.
DEBUG 2013-12-05 16:53:26.268 [Thread-90] Movie-Aspect is undefined - no prescaling applied.
DEBUG 2013-12-05 16:53:26.268 [Thread-90] videocodec: libavcodec (640x480 fourcc=3267706d [mpg2])
DEBUG 2013-12-05 16:53:26.268 [Thread-90] [VE_LAVC] Using constant qscale = 1.000000 (VBR).
DEBUG 2013-12-05 16:53:26.274 [Thread-89] [VD_FFMPEG] DRI failure.
DEBUG 2013-12-05 16:53:26.276 [Thread-90] Movie-Aspect is 1.33:1 - prescaling to correct movie aspect.
DEBUG 2013-12-05 16:53:26.278 [Thread-89] [VD_FFMPEG] DRI failure.
DEBUG 2013-12-05 16:53:26.280 [Thread-90] Writing header...
DEBUG 2013-12-05 16:53:26.280 [Thread-90] INITV: 0.200, 0.167, fps: 29.970
DEBUG 2013-12-05 16:53:26.280 [Thread-90] 
DEBUG 2013-12-05 16:53:26.501 [New I/O worker #11] Starting "C:\Program Files (x86)\Universal Media Server\win32\ffmpeg.exe" -ss 2 -i "E:\Unsorted\Patlabor\Mobile Police Patlabor\Patlabor.TV.06v2.(Dual.Audio).XVID.[AM].ogm" -an -an -s 320x180 -vframes 1 -f image2 pipe:
DEBUG 2013-12-05 16:53:26.502 [New I/O worker #11] Attaching thread: ffmpeg.exe-16
DEBUG 2013-12-05 16:53:26.522 [Thread-92] ffmpeg version N-58485-ga12b4bd Copyright (c) 2000-2013 the FFmpeg developers
DEBUG 2013-12-05 16:53:26.522 [Thread-92]   built on Nov 26 2013 22:01:46 with gcc 4.8.2 (GCC)
DEBUG 2013-12-05 16:53:26.522 [Thread-92]   configuration: --enable-gpl --enable-version3 --disable-w32threads --enable-avisynth --enable-bzlib --enable-fontconfig --enable-frei0r --enable-gnutls --enable-iconv --enable-libass --enable-libbluray --enable-libcaca --enable-libfreetype --enable-libgsm --enable-libilbc --enable-libmodplug --enable-libmp3lame --enable-libopencore-amrnb --enable-libopencore-amrwb --enable-libopenjpeg --enable-libopus --enable-librtmp --enable-libschroedinger --enable-libsoxr --enable-libspeex --enable-libtheora --enable-libtwolame --enable-libvidstab --enable-libvo-aacenc --enable-libvo-amrwbenc --enable-libvorbis --enable-libvpx --enable-libwavpack --enable-libx264 --enable-libxavs --enable-libxvid --enable-zlib
DEBUG 2013-12-05 16:53:26.522 [Thread-92]   libavutil      52. 55.100 / 52. 55.100
DEBUG 2013-12-05 16:53:26.522 [Thread-92]   libavcodec     55. 44.100 / 55. 44.100
DEBUG 2013-12-05 16:53:26.522 [Thread-92]   libavformat    55. 21.102 / 55. 21.102
DEBUG 2013-12-05 16:53:26.522 [Thread-92]   libavdevice    55.  5.101 / 55.  5.101
DEBUG 2013-12-05 16:53:26.522 [Thread-92]   libavfilter     3. 91.100 /  3. 91.100
DEBUG 2013-12-05 16:53:26.522 [Thread-92]   libswscale      2.  5.101 /  2.  5.101
DEBUG 2013-12-05 16:53:26.522 [Thread-92]   libswresample   0. 17.104 /  0. 17.104
DEBUG 2013-12-05 16:53:26.522 [Thread-92]   libpostproc    52.  3.100 / 52.  3.100
DEBUG 2013-12-05 16:53:26.557 [Thread-92] Input #0, ogg, from 'E:\Unsorted\Patlabor\Mobile Police Patlabor\Patlabor.TV.06v2.(Dual.Audio).XVID.[AM].ogm':
DEBUG 2013-12-05 16:53:26.557 [Thread-92]   Duration: 00:24:42.18, start: 0.000000, bitrate: 993 kb/s
DEBUG 2013-12-05 16:53:26.557 [Thread-92]     Chapter #0.0: start 0.000000, end 117.000000
DEBUG 2013-12-05 16:53:26.557 [Thread-92]     Metadata:
DEBUG 2013-12-05 16:53:26.557 [Thread-92]       title           : Chapter 1
DEBUG 2013-12-05 16:53:26.557 [Thread-92]     Chapter #0.1: start 117.000000, end 686.400000
DEBUG 2013-12-05 16:53:26.557 [Thread-92]     Metadata:
DEBUG 2013-12-05 16:53:26.557 [Thread-92]       title           : Chapter 2
DEBUG 2013-12-05 16:53:26.557 [Thread-92]     Chapter #0.2: start 686.400000, end 1360.667000
DEBUG 2013-12-05 16:53:26.557 [Thread-92]     Metadata:
DEBUG 2013-12-05 16:53:26.557 [Thread-92]       title           : Chapter 3
DEBUG 2013-12-05 16:53:26.557 [Thread-92]     Chapter #0.3: start 1360.667000, end 1449.333000
DEBUG 2013-12-05 16:53:26.557 [Thread-92]     Metadata:
DEBUG 2013-12-05 16:53:26.557 [Thread-92]       title           : Chapter 4
DEBUG 2013-12-05 16:53:26.558 [Thread-92]     Chapter #0.4: start 1449.333000, end 1482.182000
DEBUG 2013-12-05 16:53:26.558 [Thread-92]     Metadata:
DEBUG 2013-12-05 16:53:26.558 [Thread-92]       title           : Chapter 5
DEBUG 2013-12-05 16:53:26.558 [Thread-92]     Stream #0:0: Video: mpeg4 (XVID / 0x44495658), yuv420p, 640x480, 29.97 fps, 29.97 tbr, 29.97 tbn, 29.97 tbc
DEBUG 2013-12-05 16:53:26.558 [Thread-92]     Stream #0:1(English[eng]): Audio: vorbis, 48000 Hz, stereo, fltp, 112 kb/s
DEBUG 2013-12-05 16:53:26.558 [Thread-92]     Stream #0:2(Japanese[jpn]): Audio: vorbis, 48000 Hz, stereo, fltp, 112 kb/s
DEBUG 2013-12-05 16:53:26.558 [Thread-92]     Stream #0:3(English[eng]): Subtitle: text
DEBUG 2013-12-05 16:53:26.561 [Thread-92] [swscaler @ 040c0060] deprecated pixel format used, make sure you did set range correctly
DEBUG 2013-12-05 16:53:26.562 [Thread-92] Output #0, image2, to 'pipe:':
DEBUG 2013-12-05 16:53:26.563 [Thread-92]   Metadata:
DEBUG 2013-12-05 16:53:26.563 [Thread-92]     encoder         : Lavf55.21.102
DEBUG 2013-12-05 16:53:26.563 [Thread-92]     Chapter #0.0: start 0.000000, end 115.000000
DEBUG 2013-12-05 16:53:26.563 [Thread-92]     Metadata:
DEBUG 2013-12-05 16:53:26.563 [Thread-92]       title           : Chapter 1
DEBUG 2013-12-05 16:53:26.563 [Thread-92]     Chapter #0.1: start 115.000000, end 684.400000
DEBUG 2013-12-05 16:53:26.563 [Thread-92]     Metadata:
DEBUG 2013-12-05 16:53:26.563 [Thread-92]       title           : Chapter 2
DEBUG 2013-12-05 16:53:26.563 [Thread-92]     Chapter #0.2: start 684.400000, end 1358.667000
DEBUG 2013-12-05 16:53:26.563 [Thread-92]     Metadata:
DEBUG 2013-12-05 16:53:26.563 [Thread-92]       title           : Chapter 3
DEBUG 2013-12-05 16:53:26.563 [Thread-92]     Chapter #0.3: start 1358.667000, end 1447.333000
DEBUG 2013-12-05 16:53:26.563 [Thread-92]     Metadata:
DEBUG 2013-12-05 16:53:26.563 [Thread-92]       title           : Chapter 4
DEBUG 2013-12-05 16:53:26.563 [Thread-92]     Chapter #0.4: start 1447.333000, end 1480.182000
DEBUG 2013-12-05 16:53:26.563 [Thread-92]     Metadata:
DEBUG 2013-12-05 16:53:26.563 [Thread-92]       title           : Chapter 5
DEBUG 2013-12-05 16:53:26.563 [Thread-92]     Stream #0:0: Video: mjpeg, yuvj420p, 320x180, q=2-31, 200 kb/s, 90k tbn, 29.97 tbc
DEBUG 2013-12-05 16:53:26.563 [Thread-92] Stream mapping:
DEBUG 2013-12-05 16:53:26.563 [Thread-92]   Stream #0:0 -> #0:0 (mpeg4 -> mjpeg)
DEBUG 2013-12-05 16:53:26.563 [Thread-92] Press [q] to stop, [?] for help
DEBUG 2013-12-05 16:53:26.563 [Thread-92] [mpeg4 @ 03cea420] Video uses a non-standard and wasteful way to store B-frames ('packed B-frames'). Consider using a tool like VirtualDub or avidemux to fix it.
DEBUG 2013-12-05 16:53:26.601 [Thread-92] frame=    1 fps=0.0 q=0.0 Lsize=N/A time=00:00:00.03 bitrate=N/A    
DEBUG 2013-12-05 16:53:26.601 [Thread-92] 
DEBUG 2013-12-05 16:53:26.601 [Thread-92] video:13kB audio:0kB subtitle:0 global headers:0kB muxing overhead -100.162915%
DEBUG 2013-12-05 16:53:27.342 [New I/O worker #15] Starting "C:\Program Files (x86)\Universal Media Server\win32\ffmpeg.exe" -ss 2 -i "E:\Unsorted\Patlabor\Mobile Police Patlabor\Patlabor.TV.07v2.(Dual.Audio).XVID.[AM].ogm" -an -an -s 320x180 -vframes 1 -f image2 pipe:
DEBUG 2013-12-05 16:53:27.343 [New I/O worker #15] Attaching thread: ffmpeg.exe-17
DEBUG 2013-12-05 16:53:27.350 [New I/O worker #16] Requesting time seek: 85.0 seconds
DEBUG 2013-12-05 16:53:27.350 [External Process Stopper] Stopping process: mencoder.exe-15
DEBUG 2013-12-05 16:53:27.354 [New I/O worker #16] Creating pipe \\.\pipe\mencoder1386280407354
DEBUG 2013-12-05 16:53:27.357 [Thread-99] Waiting for pipe connection \\.\pipe\mencoder1386280407354
DEBUG 2013-12-05 16:53:27.357 [mencoder.exe-18] Starting "C:\Program Files (x86)\Universal Media Server\win32\mencoder.exe" -ss 85.0 "E:\Unsorted\Patlabor\Mobile Police Patlabor\Patlabor.TV.02v2.(Dual.Audio).XVID.[AM].ogm" -msglevel statusline=2 -oac lavc -of mpeg -mpegopts format=mpeg2:muxrate=500000:vbuf_size=1194:abuf_size=64 -ovc lavc -channels 6 -lavdopts debug=0:threads=4 -lavcopts autoaspect=1:vcodec=mpeg2video:acodec=ac3:abitrate=448:threads=4:keyint=25:vqscale=1:vqmin=2:vqmax=3:vrc_maxrate=499000:vrc_buf_size=1835 -font C:\Windows\Fonts\Arial.ttf -subfont-text-scale 3 -subfont-outline 1 -subfont-blur 1 -subpos 98 -nofontconfig -aid 1 -noautosub -sid 0 -ofps 30000/1001 -lavdopts fast -mc 0 -noskip -af lavcresample=48000 -srate 48000 -o \\.\pipe\mencoder1386280407354
DEBUG 2013-12-05 16:53:27.358 [mencoder.exe-18] Reading pipe: \\.\pipe\mencoder1386280407354
DEBUG 2013-12-05 16:53:27.358 [mencoder.exe-18] Attaching thread: mencoder.exe-18
DEBUG 2013-12-05 16:53:27.363 [Thread-96] ffmpeg version N-58485-ga12b4bd Copyright (c) 2000-2013 the FFmpeg developers
DEBUG 2013-12-05 16:53:27.363 [Thread-96]   built on Nov 26 2013 22:01:46 with gcc 4.8.2 (GCC)
DEBUG 2013-12-05 16:53:27.363 [Thread-96]   configuration: --enable-gpl --enable-version3 --disable-w32threads --enable-avisynth --enable-bzlib --enable-fontconfig --enable-frei0r --enable-gnutls --enable-iconv --enable-libass --enable-libbluray --enable-libcaca --enable-libfreetype --enable-libgsm --enable-libilbc --enable-libmodplug --enable-libmp3lame --enable-libopencore-amrnb --enable-libopencore-amrwb --enable-libopenjpeg --enable-libopus --enable-librtmp --enable-libschroedinger --enable-libsoxr --enable-libspeex --enable-libtheora --enable-libtwolame --enable-libvidstab --enable-libvo-aacenc --enable-libvo-amrwbenc --enable-libvorbis --enable-libvpx --enable-libwavpack --enable-libx264 --enable-libxavs --enable-libxvid --enable-zlib
DEBUG 2013-12-05 16:53:27.363 [Thread-96]   libavutil      52. 55.100 / 52. 55.100
DEBUG 2013-12-05 16:53:27.363 [Thread-96]   libavcodec     55. 44.100 / 55. 44.100
DEBUG 2013-12-05 16:53:27.363 [Thread-96]   libavformat    55. 21.102 / 55. 21.102
DEBUG 2013-12-05 16:53:27.363 [Thread-96]   libavdevice    55.  5.101 / 55.  5.101
DEBUG 2013-12-05 16:53:27.363 [Thread-96]   libavfilter     3. 91.100 /  3. 91.100
DEBUG 2013-12-05 16:53:27.363 [Thread-96]   libswscale      2.  5.101 /  2.  5.101
DEBUG 2013-12-05 16:53:27.363 [Thread-96]   libswresample   0. 17.104 /  0. 17.104
DEBUG 2013-12-05 16:53:27.363 [Thread-96]   libpostproc    52.  3.100 / 52.  3.100
DEBUG 2013-12-05 16:53:27.369 [Thread-103] MEncoder SB53 (C) 2000-2013 MPlayer Team
DEBUG 2013-12-05 16:53:27.369 [Thread-103] Custom build by SubJunk, http://www.spirton.com
DEBUG 2013-12-05 16:53:27.369 [Thread-103] 
DEBUG 2013-12-05 16:53:27.371 [Thread-103] success: format: 0  data: 0x0 - 0xafad444
DEBUG 2013-12-05 16:53:27.371 [Thread-103] libavformat version 55.21.100 (internal)
DEBUG 2013-12-05 16:53:27.373 [Thread-103] libavformat file format detected.
DEBUG 2013-12-05 16:53:27.377 [Thread-103] [lavf] stream 0: video (mpeg4), -vid 0
DEBUG 2013-12-05 16:53:27.377 [Thread-103] [lavf] stream 1: audio (vorbis), -aid 0, -alang English[eng]
DEBUG 2013-12-05 16:53:27.377 [Thread-103] [lavf] stream 2: audio (vorbis), -aid 1, -alang Japanese[jpn]
DEBUG 2013-12-05 16:53:27.377 [Thread-103] [lavf] stream 3: subtitle (text), -sid 0, -slang English[eng]
DEBUG 2013-12-05 16:53:27.377 [Thread-103] VIDEO:  [MP4V]  640x480  0bpp  29.970 fps    0.0 kbps ( 0.0 kbyte/s)
DEBUG 2013-12-05 16:53:27.377 [Thread-103] [V] filefmt:44  fourcc:0x5634504D  size:640x480  fps:29.970  ftime:=0.0334
DEBUG 2013-12-05 16:53:27.377 [Thread-103] ==========================================================================
DEBUG 2013-12-05 16:53:27.377 [Thread-103] Opening audio decoder: [ffmpeg] FFmpeg/libavcodec audio decoders
DEBUG 2013-12-05 16:53:27.377 [Thread-103] libavcodec version 55.41.100 (internal)
DEBUG 2013-12-05 16:53:27.378 [Thread-103] AUDIO: 48000 Hz, 2 ch, floatle, 112.0 kbit/3.65% (ratio: 14000->384000)
DEBUG 2013-12-05 16:53:27.378 [Thread-99] Result of \\.\pipe\mencoder1386280407354 : true
DEBUG 2013-12-05 16:53:27.378 [Thread-103] Selected audio codec: [ffvorbis] afm: ffmpeg (FFmpeg Vorbis)
DEBUG 2013-12-05 16:53:27.378 [Thread-103] ==========================================================================
DEBUG 2013-12-05 16:53:27.379 [Thread-103] PACKET SIZE: 2048 bytes, deltascr: 884
DEBUG 2013-12-05 16:53:27.379 [Thread-103] Opening video filter: [expand osd=1]
DEBUG 2013-12-05 16:53:27.379 [Thread-103] Expand: -1 x -1, -1 ; -1, osd: 1, aspect: 0.000000, round: 1
DEBUG 2013-12-05 16:53:27.379 [Thread-103] ==========================================================================
DEBUG 2013-12-05 16:53:27.379 [Thread-103] Opening video decoder: [ffmpeg] FFmpeg's libavcodec codec family
DEBUG 2013-12-05 16:53:27.379 [Thread-103] Selected video codec: [ffodivx] vfm: ffmpeg (FFmpeg MPEG-4)
DEBUG 2013-12-05 16:53:27.379 [Thread-103] ==========================================================================
DEBUG 2013-12-05 16:53:27.380 [Thread-102] [ac3 @ 01da33e0]Channel layout not specified
DEBUG 2013-12-05 16:53:27.380 [Thread-102] [ac3 @ 01da33e0]No channel layout specified. The encoder will guess the layout, but it might be incorrect.
DEBUG 2013-12-05 16:53:27.383 [Thread-102] Limiting audio preload to 0.4s.
DEBUG 2013-12-05 16:53:27.383 [Thread-102] Increasing audio density to 4.
DEBUG 2013-12-05 16:53:27.386 [Thread-103] [mpeg4 @ 01da33e0]Video uses a non-standard and wasteful way to store B-frames ('packed B-frames'). Consider using a tool like VirtualDub or avidemux to fix it.
DEBUG 2013-12-05 16:53:27.386 [Thread-103] Movie-Aspect is undefined - no prescaling applied.
DEBUG 2013-12-05 16:53:27.386 [Thread-103] videocodec: libavcodec (640x480 fourcc=3267706d [mpg2])
DEBUG 2013-12-05 16:53:27.386 [Thread-103] [VE_LAVC] Using constant qscale = 1.000000 (VBR).
DEBUG 2013-12-05 16:53:27.391 [Thread-102] [VD_FFMPEG] DRI failure.
DEBUG 2013-12-05 16:53:27.394 [Thread-103] Movie-Aspect is 1.33:1 - prescaling to correct movie aspect.
DEBUG 2013-12-05 16:53:27.394 [Thread-96] Input #0, ogg, from 'E:\Unsorted\Patlabor\Mobile Police Patlabor\Patlabor.TV.07v2.(Dual.Audio).XVID.[AM].ogm':
DEBUG 2013-12-05 16:53:27.394 [Thread-96]   Duration: 00:24:43.92, start: 0.000000, bitrate: 990 kb/s
DEBUG 2013-12-05 16:53:27.394 [Thread-96]     Chapter #0.0: start 0.000000, end 118.733000
DEBUG 2013-12-05 16:53:27.394 [Thread-96]     Metadata:
DEBUG 2013-12-05 16:53:27.394 [Thread-96]       title           : Chapter 6
DEBUG 2013-12-05 16:53:27.394 [Thread-96]     Chapter #0.1: start 118.733000, end 734.067000
DEBUG 2013-12-05 16:53:27.394 [Thread-96]     Metadata:
DEBUG 2013-12-05 16:53:27.394 [Thread-96]       title           : Chapter 7
DEBUG 2013-12-05 16:53:27.394 [Thread-96]     Chapter #0.2: start 734.067000, end 1362.400000
DEBUG 2013-12-05 16:53:27.394 [Thread-96]     Metadata:
DEBUG 2013-12-05 16:53:27.394 [Thread-96]       title           : Chapter 8
DEBUG 2013-12-05 16:53:27.394 [Thread-96]     Chapter #0.3: start 1362.400000, end 1451.667000
DEBUG 2013-12-05 16:53:27.394 [Thread-96]     Metadata:
DEBUG 2013-12-05 16:53:27.394 [Thread-96]       title           : Chapter 9
DEBUG 2013-12-05 16:53:27.394 [Thread-96]     Chapter #0.4: start 1451.667000, end 1483.917000
DEBUG 2013-12-05 16:53:27.394 [Thread-96]     Metadata:
DEBUG 2013-12-05 16:53:27.394 [Thread-96]       title           : Chapter 10
DEBUG 2013-12-05 16:53:27.394 [Thread-96]     Stream #0:0: Video: mpeg4 (XVID / 0x44495658), yuv420p, 640x480, 29.97 fps, 29.97 tbr, 29.97 tbn, 29.97 tbc
DEBUG 2013-12-05 16:53:27.394 [Thread-96]     Stream #0:1(English[eng]): Audio: vorbis, 48000 Hz, stereo, fltp, 112 kb/s
DEBUG 2013-12-05 16:53:27.394 [Thread-96]     Stream #0:2(Japanese[jpn]): Audio: vorbis, 48000 Hz, stereo, fltp, 112 kb/s
DEBUG 2013-12-05 16:53:27.394 [Thread-96]     Stream #0:3(English[eng]): Subtitle: text

User avatar
squadjot
Moderator
Posts: 652
Joined: Fri Jun 01, 2012 4:24 am

Re: Double Subtitles?

Post by squadjot » Sat Sep 29, 2018 1:01 am

Do you have FFDshow installed?

User avatar
squadjot
Moderator
Posts: 652
Joined: Fri Jun 01, 2012 4:24 am

Re: Double Subtitles?

Post by squadjot » Sat Sep 29, 2018 7:09 am

If you're using mencoder try disable "Use ASS/SSA subtitles styling" which is known to cause double subtitles.
https://imgur.com/a/icN0SJK

Post Reply